<?xml version="1.0" standalone="no"?>
<!DOCTYPE svg PUBLIC "-//W3C//DTD SVG 1.1//EN" "http://www.w3.org/Graphics/SVG/1.1/DTD/svg11.dtd" >
<svg xmlns="http://www.w3.org/2000/svg">
<metadata>
This is a custom SVG webfont generated by Font Squirrel.
Copyright   : Copyright  1987 1991 1999 2002 Adobe Systems Incorporated  All Rights Reserved  1981 1999 2002 Heidelberger Druckmaschinen AG All rights reserved
Designer    : Adrian Frutiger
Foundry URL : httpwwwadobecomtype
</metadata>
<defs>
<font id="webfontoNmcZAxN" horiz-adv-x="909" >
<font-face units-per-em="2048" ascent="1483" descent="-565" />
<missing-glyph horiz-adv-x="454" />
<glyph unicode=" "  horiz-adv-x="454" />
<glyph unicode="&#x09;" horiz-adv-x="454" />
<glyph unicode="&#xa0;" horiz-adv-x="454" />
<glyph unicode="!" horiz-adv-x="681" d="M264 0l33 156h152l-33 -156h-152zM467 348h-107l222 1131h143z" />
<glyph unicode="&#x22;" horiz-adv-x="632" d="M373 1055l90 424h106l-90 -424h-106zM600 1055l90 424h107l-90 -424h-107z" />
<glyph unicode="#" d="M66 0l245 477h-225l55 98h219l129 252h-223l56 99h215l254 501h106l-254 -501h158l252 501h106l-252 -501h215l-53 -99h-209l-129 -252h211l-53 -98h-205l-242 -477h-112l245 477h-157l-246 -477h-106zM465 575h158l131 252h-156z" />
<glyph unicode="$" d="M592 827l108 512q-197 -25 -237 -219q-20 -102 14.5 -169t114.5 -124zM633 635l-117 -547q106 8 167.5 62.5t86.5 168.5q25 111 -13 183t-124 133zM494 -23l-35 -159h-82l35 159q-174 10 -234.5 109.5t-15.5 306.5h131q-37 -141 -7.5 -217t148.5 -88l127 594 q-43 27 -60.5 39t-54 41t-53 48t-38 54t-29 68t-7.5 78t11 96q35 158 138 243t255 101l29 129h82l-29 -129q176 -6 234.5 -102.5t11.5 -288.5h-131q33 125 4 198.5t-142 81.5l-118 -557q139 -86 182 -137q100 -113 63 -291q-75 -354 -415 -377z" />
<glyph unicode="%" horiz-adv-x="1593" d="M569 705q-268 0 -188 360q16 80 38.5 140.5t61.5 119.5t101.5 92t144.5 33q98 0 150.5 -50t55.5 -128t-13 -170q-16 -80 -39 -141.5t-62 -125t-102.5 -97t-147.5 -33.5zM590 803q53 0 94 25.5t64.5 72.5t37 86t23.5 90q55 274 -102 275q-162 0 -218 -275q-10 -53 -14 -90 t-1 -85t33 -73.5t83 -25.5zM1169 -23q-104 0 -156 52.5t-51 132.5t17 176q16 80 38.5 140.5t61.5 119.5t102.5 92t145.5 33q98 0 150.5 -50t55.5 -128t-13 -170q-16 -80 -39 -141.5t-62 -125t-102.5 -97.5t-147.5 -34zM1190 76q53 0 93 25.5t64.5 72.5t37 85t22.5 91 q61 274 -100 275q-158 0 -220 -275q-10 -53 -14 -91t0 -85t34 -72.5t83 -25.5zM508 -80h-94l952 1559h94z" />
<glyph unicode="&#x26;" horiz-adv-x="1251" d="M913 250l-292 475q-139 -86 -201 -150.5t-88 -185.5q-63 -307 252 -307q90 0 181 45t148 123zM682 883q80 51 127 87t94 98t64 134q41 195 -140 195q-90 0 -154.5 -49.5t-84.5 -139.5q-4 -25 -7 -46t-1 -42.5t3 -36t10 -37t11 -31.5t16.5 -34t18.5 -31t21.5 -34.5 t21.5 -32.5zM1055 0l-80 147q-106 -102 -215 -139t-256 -37q-168 0 -259 98.5t-44 317.5q14 68 39.5 122t48 88t77 78t84.5 64l111 74l-36 57l-35 57q-9 15 -24 51t-18.5 61.5t-3.5 63.5t9 79q35 168 135 246.5t272 78.5q147 0 210 -71.5t26 -241.5q-8 -41 -21.5 -76 t-41.5 -70l-42 -56q-14 -19 -59 -55t-55.5 -45t-70.5 -51l-67 -46l260 -422q39 76 83 216t67 240h123q-78 -352 -207 -569l158 -260h-168z" />
<glyph unicode="'" horiz-adv-x="405" d="M373 1055l90 424h106l-90 -424h-106z" />
<glyph unicode="(" horiz-adv-x="454" d="M563 1522h92q-254 -545 -325 -889q-92 -428 -56 -903h-100q-57 526 16 872q88 410 373 920z" />
<glyph unicode=")" horiz-adv-x="454" d="M446 1522h93q68 -512 -21 -920q-74 -344 -352 -872h-100q240 481 329 903q74 350 51 889z" />
<glyph unicode="*" d="M721 1249l176 258l80 -57l-205 -229l283 22l-23 -108l-272 28l110 -233l-110 -60l-66 260l-176 -260l-86 60l213 233l-285 -28l23 108l274 -22l-110 229l104 57z" />
<glyph unicode="+" d="M500 465h-361l23 106h360l99 463h106l-98 -463h360l-22 -106h-361l-98 -465h-107z" />
<glyph unicode="," horiz-adv-x="454" d="M66 -215l159 371h150l-201 -371h-108z" />
<glyph unicode="-" horiz-adv-x="569" d="M596 487h-414l25 117h414z" />
<glyph unicode="." horiz-adv-x="454" d="M152 0l32 156h152l-33 -156h-151z" />
<glyph unicode="/" horiz-adv-x="681" d="M55 -225h-108l942 1704h110z" />
<glyph unicode="0" d="M432 993l-119 -559q-16 -78 -18 -137t10 -95t28.5 -60.5t43 -35t48 -14.5t48.5 -4q43 0 79 10.5t82 41t84 106.5t62 188l119 559q16 78 18.5 137.5t-10 95.5t-29 60.5t-43 34.5t-48 14t-48.5 4q-43 0 -78.5 -10t-82 -41t-84 -106.5t-62.5 -188.5zM762 1450 q76 0 131 -19.5t87 -47t47 -80t20.5 -92.5t-3 -111.5t-16.5 -113.5t-24 -118l-66 -309q-16 -78 -25.5 -118t-32 -112.5t-44 -112.5t-59.5 -92t-81 -80t-106.5 -47.5t-139 -19.5t-131 19.5t-87 47.5t-47 80t-20.5 92t3 111.5t16.5 113.5l24.5 118l65 309q16 78 25.5 118 t32 112.5t44 112.5t59.5 92.5t81 80t106.5 47t139.5 19.5z" />
<glyph unicode="1" d="M408 1063l30 141q201 121 305 223h115l-303 -1427h-123l268 1264q-151 -119 -292 -201z" />
<glyph unicode="2" d="M829 111l-22 -111h-727l24 115l292 330l262 295q87 99 164 208t91 176q27 129 -28.5 172t-159.5 43q-113 0 -188.5 -72.5t-100.5 -187.5h-123q43 195 166 283t269 88q70 0 126 -13.5t106 -43t69.5 -92t1.5 -148.5q-8 -35 -17.5 -65.5t-31 -69.5t-39 -67.5t-60.5 -83.5 l-76 -94l-103 -121l-126 -143l-161 -182l-191 -216h583z" />
<glyph unicode="3" d="M496 684l22 111q307 -27 375 290q53 254 -172 254q-117 0 -183.5 -70.5t-86.5 -189.5h-132q25 162 134.5 266.5t273.5 104.5q186 0 263 -82t36 -266q-63 -307 -299 -361v-4q233 -25 162 -348q-41 -199 -154.5 -305.5t-288.5 -106.5q-393 0 -303 373h131 q-29 -121 15.5 -191.5t161.5 -70.5q246 0 301 272q41 190 -11 264t-245 60z" />
<glyph unicode="4" d="M266 467h402l178 838h-4zM995 1427l-204 -960h167l-22 -111h-168l-76 -356h-123l76 356h-512l25 119l643 952h194z" />
<glyph unicode="5" d="M692 913q82 0 138.5 -21.5t84 -56t40 -82.5t10.5 -96.5t-11.5 -101.5l-17.5 -94q-2 -10 -4 -15q-20 -98 -51 -174.5t-83.5 -147.5t-136 -109t-194.5 -38q-371 0 -287 365h131q-29 -125 12.5 -189.5t163.5 -64.5q76 0 133.5 31t92.5 87t54 110.5t34 129.5q18 80 22 133.5 t-6 109.5t-55 85t-127 29q-76 0 -150.5 -40t-103.5 -110h-119l164 774h657l-22 -110h-535l-108 -510q78 59 135 82.5t139 23.5z" />
<glyph unicode="6" d="M786 459q39 166 5.5 247.5t-156.5 81.5q-252 0 -326 -342l-2 -6q-59 -242 53 -321q43 -31 115 -31q63 0 113.5 23.5t81 56.5t55.5 88t36 97.5t25 105.5zM1040 1110h-131q37 229 -159 229q-72 0 -127.5 -30.5t-89 -71.5t-62.5 -112.5t-42 -123t-30 -135.5l-26 -125l4 2 q113 156 313 156q70 0 121 -21.5t77.5 -49t40 -75.5t16.5 -79t-3 -81t-9 -60.5t-9 -36.5q-25 -121 -52.5 -202t-78 -160t-131 -118t-193.5 -39q-102 0 -167.5 25t-98.5 63.5t-40 106.5t0 131.5t27 161.5l101 467q59 279 161.5 398.5t327.5 119.5q326 0 260 -340z" />
<glyph unicode="7" d="M346 1317l23 110h723l-27 -131l-717 -1296h-143l739 1317h-598z" />
<glyph unicode="8" d="M623 795q229 0 288 280q29 137 -6 207t-164 70t-192.5 -70t-91.5 -207q-59 -280 166 -280zM762 752v-4q88 -20 129 -73.5t38 -125.5t-20 -162q-16 -80 -43.5 -144.5t-78 -129t-136.5 -100.5t-200 -36q-373 0 -287 410q33 152 97.5 242t205.5 119l-4 4q-78 18 -116 69 t-36 120t19 153q10 51 21 88t42 92t74 90t119 60.5t176 25.5t165.5 -25.5t93.5 -60.5t36 -90t4 -91t-14 -89q-31 -141 -93.5 -229t-191.5 -113zM471 76q242 0 303 295q14 70 18.5 118t-7 100t-57.5 79.5t-126 27.5t-137 -27.5t-91 -79.5t-51.5 -100.5t-31.5 -117.5 q-62 -295 180 -295z" />
<glyph unicode="9" d="M586 674q250 0 313 321q14 68 20.5 106t5.5 91t-18.5 79.5t-60.5 47t-111 20.5q-137 0 -202.5 -89t-98.5 -238q-14 -82 -19 -158t37 -128t134 -52zM549 563q-186 0 -240.5 107.5t-5.5 341.5q45 209 147.5 323.5t303.5 114.5q76 0 131 -13.5t90 -35t53.5 -62.5t25.5 -78.5 t0 -104t-16.5 -119t-27.5 -140.5l-37 -176l-33 -149l-30 -128q-17 -74 -31.5 -114.5l-35 -94t-40 -82t-47 -63.5t-57 -51t-67.5 -32.5t-82 -23t-97 -6.5q-180 0 -247 80t-34 260h131q-53 -229 156 -229q74 0 124 19.5t84.5 53.5t61.5 103.5t47.5 146t48.5 203.5q10 49 17 74 h-4q-113 -125 -289 -125z" />
<glyph unicode=":" horiz-adv-x="454" d="M152 0l32 156h152l-33 -156h-151zM338 879l33 155h151l-33 -155h-151z" />
<glyph unicode=";" horiz-adv-x="454" d="M37 -215l160 371h149l-201 -371h-108zM338 879l33 155h151l-33 -155h-151z" />
<glyph unicode="&#x3c;" d="M139 473l19 90l936 479l-25 -114l-811 -400l-2 -10l639 -412l-25 -114z" />
<glyph unicode="=" d="M1028 754l-22 -107h-828l23 107h827zM950 389l-22 -106h-828l23 106h827z" />
<glyph unicode="&#x3e;" d="M991 563l-18 -90l-936 -481l24 114l816 412l2 10l-643 400l24 114z" />
<glyph unicode="?" horiz-adv-x="796" d="M502 348h-123l39 178q20 92 56 158t76 107l81 83q41 43 77.5 116t59.5 177q10 49 14 77t3 60.5t-14 50t-41 30t-73 12.5q-94 0 -138 -63.5t-62 -168.5h-131q57 342 352 342q170 0 215 -79.5t6 -262.5q-23 -106 -63.5 -189t-83.5 -132t-85 -92t-76 -95.5t-48 -115.5z M293 0l33 156h151l-33 -156h-151z" />
<glyph unicode="@" horiz-adv-x="1638" d="M766 397q154 0 268 174q68 102 140.5 241.5t82.5 188.5q12 57 -23.5 103.5t-107.5 46.5q-150 0 -293 -173t-180 -339q-25 -117 5 -179.5t108 -62.5zM1339 1108l52 100h112l-350 -643q-45 -76 -55 -121q-4 -25 22.5 -36t75.5 -11q113 0 217.5 85t159.5 180.5t72 166.5 q16 80 18 149t-11.5 121t-34 95t-53 73.5t-67.5 55.5t-78 39t-81 24.5t-81 14.5t-73.5 6t-65.5 2q-272 0 -501.5 -194.5t-289 -475t87 -475t419.5 -194.5q195 0 373.5 75.5t310.5 214.5h108q-139 -184 -355 -286.5t-458 -102.5q-309 0 -480 225.5t-103.5 543t333.5 542.5 t576 225q123 0 225 -21.5t190 -68.5t138.5 -121.5t70 -183t-13.5 -252.5q-51 -242 -235.5 -401.5t-360.5 -159.5q-78 0 -117 21.5t-43 80.5q-135 -102 -276 -102q-123 0 -171 90t-20 225q31 147 119 291t225.5 244t280.5 100q155 0 188 -141z" />
<glyph unicode="A" horiz-adv-x="1138" d="M807 1479h156l147 -1479h-137l-37 389h-580l-198 -389h-131zM420 500h506l-74 835h-4z" />
<glyph unicode="B" horiz-adv-x="1024" d="M444 821h252q250 0 312 297q11 57 11 101q0 33 -6 56q-7 26 -24.5 44t-33 27.5t-43 14.5t-45 6t-46.5 1h-260zM557 0h-418l314 1479h411q178 0 248 -82q44 -52 44 -146q0 -56 -15 -127q-33 -150 -93.5 -233.5t-197.5 -118.5v-4q131 -29 166 -117q18 -47 18 -111 q0 -57 -14 -128q-43 -201 -161 -306.5t-302 -105.5zM422 711l-129 -600h209q168 0 259 65.5t126 224.5q12 60 12 109q0 200 -211 201h-266z" />
<glyph unicode="C" horiz-adv-x="1024" d="M557 -29q-72 0 -128 14.5t-96 36t-64.5 61.5t-40 76t-17.5 97q-1 31 -1 57.5t1 48.5q2 45 14.5 121t21.5 124t27 132l29 133q10 47 30.5 124t38 121t45 105.5t57.5 97.5t73 76t91 61.5t110.5 35.5t134.5 14q102 0 167.5 -33.5t92 -76.5t32.5 -111q3 -34 2.5 -61t-2.5 -48 q-5 -42 -18 -98h-131q15 71 15 127q0 191 -181 191q-57 0 -105 -10.5t-86 -38t-67 -54t-54.5 -80t-43 -93.5t-36.5 -114.5l-31 -123.5l-31 -144l-25 -114l-20 -105q-11 -61 -14 -97t-5 -84q-1 -12 0 -23q0 -32 4 -53q6 -28 15.5 -61.5t29 -52t46 -36t62.5 -24.5t83 -7 q229 0 307 342h139q-10 -45 -24.5 -90t-51.5 -114.5t-85 -121t-130 -89.5t-180 -38z" />
<glyph unicode="D" horiz-adv-x="1138" d="M575 1368l-268 -1257h160q104 0 172 9t127 42t95 76t71 132t60.5 188t60.5 263q43 181 43 296q0 87 -25 136q-57 115 -323 115h-173zM154 0l313 1479h391q102 0 174 -19.5t114 -63.5t61 -100q18 -50 18 -129v-17q-2 -91 -16.5 -185.5t-43.5 -231.5q-43 -201 -88 -324.5 t-119.5 -223t-187.5 -142.5t-278 -43h-338z" />
<glyph unicode="E" d="M467 1479h670l-23 -111h-539l-116 -553h514l-25 -110h-514l-127 -594h553l-22 -111h-684z" />
<glyph unicode="F" horiz-adv-x="796" d="M139 0l314 1479h624l-22 -111h-494l-117 -553h459l-24 -110h-459l-150 -705h-131z" />
<glyph unicode="G" horiz-adv-x="1138" d="M872 125l115 537h-299l23 110h430l-158 -739q-209 -61 -420 -62q-109 0 -183.5 32t-108 90.5t-49.5 124.5q-10 42 -9 92q0 30 3 63q9 88 21.5 158.5t30.5 154.5q8 37 13 53q57 274 92 373q141 385 495 395h21q217 0 301 -98q53 -62 53 -169q0 -63 -18 -140h-131 q11 55 11 99q0 77 -34 124q-53 74 -205 74q-53 0 -98 -11.5t-79 -27t-65.5 -51t-52 -61t-43 -81t-35 -89.5t-30 -105.5t-25.5 -109.5l-26 -122q-64 -299 -64 -418v-20q8 -188 174 -215q31 -4 66 -4q161 0 284 43z" />
<glyph unicode="H" horiz-adv-x="1138" d="M279 0h-132l314 1479h131l-139 -664h581l140 664h131l-314 -1479h-131l150 705h-582z" />
<glyph unicode="I" horiz-adv-x="454" d="M475 1479h131l-313 -1479h-131z" />
<glyph unicode="J" d="M133 418h131q-16 -74 -20 -124q-1 -14 -1 -29q0 -36 7 -75q10 -53 52 -80.5t116 -27.5q227 0 280 256l242 1141h131l-246 -1160q-20 -98 -70 -168.5t-99.5 -104.5t-115 -52.5t-93 -20.5t-56.5 -2q-94 0 -155.5 28t-89 67.5t-34.5 103.5q-4 34 -4 66q0 27 3 52 q6 54 22 130z" />
<glyph unicode="K" horiz-adv-x="1024" d="M291 0h-131l313 1479h131l-143 -678h4l668 678h157l-698 -691l401 -788h-164l-372 758h-4z" />
<glyph unicode="L" horiz-adv-x="796" d="M758 0h-621l314 1479h131l-291 -1368h489z" />
<glyph unicode="M" horiz-adv-x="1593" d="M276 0h-131l314 1479h223l154 -1336h4l712 1336h209l-313 -1479h-131l287 1352h-5l-720 -1352h-152l-160 1352h-4z" />
<glyph unicode="N" horiz-adv-x="1251" d="M289 0h-131l313 1479h201l325 -1299l4 4l275 1295h131l-313 -1479h-199l-324 1313l-4 -4z" />
<glyph unicode="O" horiz-adv-x="1138" d="M412 739l-25 -114l-19 -105q-11 -61 -14.5 -97t-5.5 -84q-1 -12 0 -23q0 -32 4 -53q6 -28 15.5 -61.5t29 -52t46 -36t62.5 -24.5t83 -7q57 0 105 10t86 38t66.5 54.5t54.5 79.5t43.5 93t36.5 115l31 124l31 143l25 115l19 104q11 61 14.5 97.5t5.5 84.5q1 12 0 22 q0 32 -4 53q-6 28 -15.5 62t-29 52.5t-46 35.5t-62.5 24.5t-83 7.5q-57 0 -105 -10.5t-86 -38t-66.5 -54t-54.5 -80t-43 -93.5t-36.5 -114.5l-31.5 -123.5zM281 739l28 133q10 47 30.5 124t38 121t45.5 105.5t57.5 97.5t72.5 76t91 61.5t110.5 35.5t134.5 14t128 -14 t96 -35.5t64.5 -61.5t40 -76t17.5 -97q1 -41 1 -75v-31q-1 -44 -13.5 -120.5t-21.5 -124t-27 -133.5q-20 -98 -33 -149l-36.5 -137t-46 -133.5t-56 -112t-74.5 -100t-94.5 -70.5t-121 -50.5t-149.5 -15.5q-72 0 -128 14.5t-96 36t-64.5 61.5t-40 76t-17.5 97q-1 31 -1 57.5 t1 48.5q2 45 14.5 121t22 124t27.5 132z" />
<glyph unicode="P" d="M131 0l313 1479h406q33 0 57.5 -2t58 -9.5t57.5 -21.5t47.5 -41t33.5 -63.5t10 -93t-14 -128.5q-49 -225 -151.5 -328.5t-291.5 -103.5h-249l-146 -688h-131zM553 1368l-121 -569h244q111 0 182.5 66.5t106.5 230.5q12 61 14 107v15q0 36 -8 60q-10 29 -25.5 48.5 t-42 27.5t-50.5 11t-58 3h-242z" />
<glyph unicode="Q" horiz-adv-x="1138" d="M592 102q82 0 146.5 32t109.5 83t82 137t61.5 173t50.5 212q64 303 64 417v13q-6 193 -166 222q-33 6 -74 6q-53 0 -98 -11.5t-79 -27t-65.5 -51t-52 -61t-43 -81t-35 -89.5t-30 -105.5t-25.5 -109.5l-26 -122q-25 -119 -38.5 -196.5t-19.5 -156.5q-2 -28 -2 -52 q0 -44 7 -74q11 -47 38 -86t75 -55.5t120 -16.5zM281 739q57 274 92 373q141 385 495 395h21q109 0 183.5 -28.5t107 -94t50.5 -119.5q11 -33 10 -85q0 -33 -4 -74q-11 -104 -19.5 -151.5t-30.5 -155.5l-12 -60q-63 -297 -125 -428t-177 -196l2 -4h259l-23 -111h-283 q-31 0 -88 -4q-66 -4 -108 -4q-125 0 -210 19.5t-129 72.5t-66 102q-15 34 -15 97q0 27 3 58q9 105 21.5 176.5t45.5 221.5z" />
<glyph unicode="R" horiz-adv-x="1024" d="M670 717h-248l-152 -717h-131l314 1479h407q209 0 267 -78q34 -45 34 -130q0 -63 -18 -147q-33 -156 -96.5 -238.5t-208.5 -113.5v-4q43 -10 65.5 -16.5t47 -21.5t33.5 -29.5t15 -49.5q4 -23 5 -46q0 -11 -2 -22q-3 -34 -12 -101.5t-23 -133.5l-37 -176 q-8 -33 -14.5 -95.5t-8.5 -76.5h-125q-2 33 58 369q0 4 9 38.5t12 59.5t6 64q1 9 1 18q0 29 -8 51q-10 29 -29.5 57.5t-60.5 44t-100 15.5zM561 1368l-115 -541h213q156 0 235 60.5t118 238.5q13 59 12 102q0 62 -26 91q-44 49 -169 49h-268z" />
<glyph unicode="S" horiz-adv-x="1024" d="M1143 1104h-133q11 63 11 112q0 68 -22 109q-37 72 -178 72q-127 0 -204.5 -52.5t-104.5 -177.5q-10 -45 -11 -80.5t7 -62.5t20.5 -46.5t35 -38.5t42.5 -34l53 -38q33 -24 58 -46l58 -45l59 -41q25 -16 53 -39.5t47.5 -44t36 -50.5t23.5 -62q6 -29 7 -66q0 -5 -1 -11 q-1 -44 -11 -97q-86 -393 -477 -394q-335 0 -335 278q0 74 24 167h135q-12 -59 -18 -99q-3 -19 -2.5 -41t2.5 -47q5 -49 27 -77.5t72 -49t126 -20.5q254 0 311 262q7 33 7 62q0 31 -4 64q-3 24 -20 51l-28 43q-10 15 -44 42l-49 38l-62 44l-64 45q-121 84 -173 152 q-53 69 -54 135q0 56 14 125q37 184 162 273t315 89q211 0 269 -109q35 -66 35 -159q1 -61 -15 -135z" />
<glyph unicode="T" d="M389 0l291 1368h-361l23 111h852l-23 -111h-360l-291 -1368h-131z" />
<glyph unicode="U" horiz-adv-x="1138" d="M582 1479l-197 -930q-14 -66 -20.5 -103.5t-12.5 -101.5q-2 -22 -2 -42q0 -35 7 -60q11 -39 35 -80t74 -60.5t122 -19.5q86 0 153.5 32.5t105.5 73.5t69.5 116t43 119t27.5 126l197 930h131l-217 -1026q-104 -481 -535 -482q-350 0 -350 313q0 75 20 169l218 1026h131z " />
<glyph unicode="V" horiz-adv-x="1024" d="M545 156l645 1323h127l-723 -1479h-164l-98 1479h139l70 -1323h4z" />
<glyph unicode="W" horiz-adv-x="1705" d="M500 172l577 1307h176l23 -1297h4l590 1297h129l-680 -1479h-172l-19 1315h-4l-583 -1315h-164l-43 1479h139l23 -1307h4z" />
<glyph unicode="X" horiz-adv-x="1024" d="M362 1479h144l182 -617l455 617h139l-532 -715l254 -764h-154l-207 676l-485 -676h-140l560 764z" />
<glyph unicode="Y" horiz-adv-x="1024" d="M444 0l131 614l-235 865h147l183 -736l510 736h131l-604 -865l-132 -614h-131z" />
<glyph unicode="Z" d="M403 1479h764l-30 -146l-930 -1222h676l-23 -111h-811l31 145l936 1223h-635z" />
<glyph unicode="[" horiz-adv-x="454" d="M45 -270l381 1792h285l-21 -99h-162l-340 -1595h162l-20 -98h-285z" />
<glyph unicode="\" horiz-adv-x="454" d="M418 0l-176 1479h108l176 -1479h-108z" />
<glyph unicode="]" horiz-adv-x="454" d="M676 1522l-381 -1792h-285l21 98h162l339 1595h-161l20 99h285z" />
<glyph unicode="^" d="M719 1450h86l98 -840h-96l-78 684h-4l-365 -684h-96z" />
<glyph unicode="_" horiz-adv-x="1024" d="M969 -256h-1024l22 102h1024z" />
<glyph unicode="`" horiz-adv-x="569" d="M659 1147h-102l-233 280h163z" />
<glyph unicode="a" d="M723 340l41 188q-10 0 -68.5 -1t-78 -3t-71.5 -8t-77 -14t-64.5 -26.5t-61 -42t-42 -60.5t-31.5 -82q-7 -34 -7 -63q0 -51 23 -90q36 -60 126 -60q104 0 196 80t115 182zM659 0l27 127h-4q-129 -147 -324 -147q-135 0 -192 82q-37 54 -37 132q0 42 10 91q14 66 42 118 t60.5 85.5t80 59t88.5 38t98 20.5t95 11.5t96.5 5.5t84.5 4l19 86q12 53 12 95q0 53 -19 87q-34 61 -151 61q-90 0 -155.5 -45t-83.5 -133h-132q37 141 146.5 209t255.5 68q25 0 44 -1t49 -5.5t50.5 -11.5t48 -20t41 -33.5t28.5 -49.5q13 -24 13 -54q0 -6 -1 -13 q-3 -38 -9 -87l-111 -520q-27 -117 -43 -260h-127z" />
<glyph unicode="b" d="M360 532q-12 -57 -18 -91.5t-13 -97.5q-4 -34 -4 -60q0 -23 3 -41q6 -39 20 -81t50 -62.5t89 -20.5q66 0 117 24.5t82 57.5t56.5 98.5t39 115.5t31.5 140q16 76 23.5 119t13.5 102q3 25 3 46q0 27 -5 46q-8 33 -25.5 67t-55.5 48t-93 14q-224 0 -314 -424zM244 0h-127 q25 61 35 102l290 1377h123l-119 -561l5 -5q121 141 290 142q76 0 127.5 -22.5t75 -66.5t34.5 -88q7 -27 7 -62q0 -22 -3 -48q-7 -66 -14 -109t-22 -104q-6 -25 -8 -37q-18 -84 -34.5 -144.5t-52.5 -141t-79 -131t-112.5 -86t-155.5 -35.5q-182 0 -230 145h-4z" />
<glyph unicode="c" horiz-adv-x="796" d="M866 737h-123q12 49 13 87q0 132 -150 132q-123 0 -190 -118q-47 -84 -99 -326q-14 -66 -20 -98.5t-14 -95.5q-5 -38 -5 -66q0 -17 2 -30q5 -34 17 -71.5t43 -55t76 -17.5q111 0 160 57.5t77 169.5h123q-16 -98 -60 -167.5t-99.5 -100.5t-102.5 -44t-90 -13 q-63 0 -112.5 11t-80 36.5t-51 51t-27 73t-8.5 78.5v13q0 30 8 80l14 92q5 32 19 97q55 254 105 342q115 201 352 201q139 0 202 -80q38 -48 38 -125q-1 -51 -17 -113z" />
<glyph unicode="d" d="M451 78q96 0 180 85t121 261l39 184q6 31 11 61.5t5 87t-13.5 96.5t-54.5 71.5t-106 31.5q-53 0 -96 -14t-74 -49t-51.5 -65.5t-39 -93t-28.5 -101.5t-27 -119q-31 -139 -33 -229q0 -10 -1 -21q0 -75 21 -113q24 -44 58 -58.5t89 -14.5zM674 0l22 131l-6 -2 q-127 -150 -293 -149q-72 0 -122 21.5t-74.5 65.5t-35.5 90q-8 32 -8 74q0 19 2 41q5 70 13 121t25 125l20 93q8 36 27.5 99.5t39 103.5t53.5 90t73 80t95 50.5t122 20.5q154 0 225 -123l2 -2l117 549h123l-271 -1274q-27 -133 -30 -205h-119z" />
<glyph unicode="e" d="M915 492h-589l-17 -80q-16 -96 -15 -160q0 -69 42 -120q45 -54 135 -54q113 0 184.5 64.5t94.5 172.5h129q-90 -336 -428 -335q-290 0 -291 252q0 59 16 133l53 253q92 436 449 437q59 0 104 -10.5t77 -24.5t53.5 -44t33.5 -54.5t14.5 -69.5t2.5 -77t-9.5 -90t-16.5 -92z M346 590h467q27 102 27 178q0 52 -13 91q-31 97 -170 97q-137 0 -203.5 -89t-107.5 -277z" />
<glyph unicode="f" horiz-adv-x="569" d="M205 0l198 936h-165l20 98h166l37 174q12 51 26.5 88t48 86.5t97 77t151.5 27.5q10 0 68 -8l-21 -103h-92q-41 0 -70.5 -16.5t-46 -46t-23.5 -50t-13 -53.5l-39 -176h209l-21 -98h-209l-198 -936h-123z" />
<glyph unicode="g" d="M629 956q-61 0 -110.5 -30.5t-79 -69.5t-55.5 -104.5t-36 -106.5t-24 -104q-16 -74 -22.5 -109t-13.5 -96q-4 -31 -4 -54t4 -38q7 -31 23.5 -67t53 -51t90.5 -15q70 0 128 36.5t85 79.5q37 63 60.5 138t68.5 292q13 58 12 106q0 75 -32 120q-52 73 -148 73zM858 905 l29 131h121q-35 -129 -50 -202l-186 -871q-39 -184 -135 -273t-305 -89q-74 0 -127 20.5t-79 50t-38 69.5q-11 34 -10 65v11q2 36 12 70h123q-9 -30 -9 -55q0 -48 30 -82q46 -51 135 -51q84 0 134 19.5t82.5 74.5t49 114.5t41.5 178.5q6 33 10 51h-4q-102 -125 -276 -125 q-72 0 -122.5 19.5t-76 57.5t-38.5 79q-10 31 -10 75q0 13 1 27q4 61 11 110.5t22 117.5q37 176 51 221t53 131q10 23 32.5 51.5t62.5 66.5t102.5 62.5t136.5 24.5q80 0 142.5 -39t80.5 -107z" />
<glyph unicode="h" d="M248 0h-123l313 1479h123l-121 -572h4q133 147 281 148q229 0 229 -210q0 -51 -14 -116l-156 -729h-122l153 723q9 42 9 77q0 50 -18 90q-32 67 -132 66q-94 0 -174 -73.5t-115 -233.5z" />
<glyph unicode="i" horiz-adv-x="454" d="M289 0h-123l219 1034h123zM584 1323h-152l33 156h151z" />
<glyph unicode="j" horiz-adv-x="454" d="M393 1034h123l-260 -1224q-45 -209 -244 -209q-70 0 -90 8l23 102q21 -2 39 -1q75 0 104 27q37 34 59 140zM592 1323h-152l33 156h152z" />
<glyph unicode="k" horiz-adv-x="796" d="M129 0l313 1479h123l-190 -901h4l452 456h144l-463 -461l268 -573h-155l-250 563h-4l-119 -563h-123z" />
<glyph unicode="l" horiz-adv-x="454" d="M289 0h-123l313 1479h123z" />
<glyph unicode="m" horiz-adv-x="1366" d="M387 666l-141 -666h-123l221 1036h111l-29 -129h4q119 147 277 148q82 0 137 -43t65 -119q113 162 287 162q125 0 178 -78q37 -55 38 -135q0 -34 -7 -72l-164 -770h-123l158 739q7 36 6 68q0 48 -14 86q-25 63 -107 63q-109 0 -180.5 -87t-95.5 -203l-142 -666h-122 l157 739q7 36 7 68q0 48 -15 86q-25 63 -106 63q-109 0 -180.5 -86.5t-96.5 -203.5z" />
<glyph unicode="n" d="M385 649l-137 -649h-123l219 1034h123l-27 -127h4q133 147 281 148q229 0 229 -210q0 -51 -14 -116l-156 -729h-122l153 723q9 42 9 77q0 50 -18 90q-32 67 -132 66q-94 0 -174 -73.5t-115 -233.5z" />
<glyph unicode="o" d="M450.5 -20q-178.5 0 -243.5 110q-40 67 -40 168q0 66 17 148l47 223q43 205 156 315.5t291 110.5t244 -111q40 -67 39 -168q0 -66 -17 -147l-47 -223q-43 -205 -155.5 -315.5t-291 -110.5zM657 956q-141 0 -208.5 -105.5t-116.5 -332.5q-18 -88 -27 -150q-7 -56 -7 -108 v-13q1 -58 19.5 -93t56.5 -55.5t97 -20.5q141 0 210 106.5t118 333.5q25 111 30 183q2 27 3 54q0 43 -7 82q-10 62 -52 90.5t-116 28.5z" />
<glyph unicode="p" d="M381 610l-39 -184q-15 -73 -15 -132q0 -76 25 -126q45 -90 135 -90q141 0 210 106.5t118 333.5q25 111 31 183q2 27 2 54q0 43 -6 82q-10 62 -52 90.5t-116 28.5q-76 0 -166 -87t-127 -259zM467 1034l-27 -125l6 2q123 143 279 144q78 0 132 -20.5t80 -59.5t39 -77 q10 -29 10 -69q0 -12 -1 -25q-4 -56 -8 -88t-14 -79l-50 -231q-45 -211 -150.5 -318.5t-295.5 -107.5q-127 0 -186 135l-5 2l-108 -508h-123l303 1425h119z" />
<glyph unicode="q" d="M444 78q66 0 117 24.5t82 57.5t56.5 98.5t39 115.5t31.5 140q16 76 23.5 119t13.5 102q3 25 3 46q0 27 -5 46q-8 33 -25.5 67t-55.5 48t-93 14q-223 0 -314 -424q-12 -57 -18 -91.5t-13 -97.5q-4 -34 -4 -60q0 -23 3 -41q6 -39 20 -81t50 -62.5t89 -20.5zM885 1034h127 q-29 -84 -33 -102l-283 -1323h-123l109 508l-2 4q-123 -141 -293 -141q-90 0 -146.5 34.5t-75.5 85.5q-18 49 -19 118q0 75 13 139l25 126q6 23 9 33q16 84 33.5 145.5t52 141.5t77.5 130t113 86t156 36q184 0 229 -154h4z" />
<glyph unicode="r" horiz-adv-x="569" d="M475 1034l-29 -139h5q53 74 138 117t179 43l-27 -125q-16 1 -31 1q-108 0 -191 -63q-95 -72 -122 -202l-141 -666h-123l219 1034h123z" />
<glyph unicode="s" horiz-adv-x="796" d="M762 272q-31 -143 -126 -217.5t-241 -74.5q-164 0 -220 79q-34 48 -34 129q0 53 15 119h125q-16 -54 -16 -97q0 -42 15 -74q30 -65 140 -64q176 0 215 182q5 23 5 43q0 46 -26 83q-37 52 -98 85t-121.5 69.5t-94.5 102.5q-21 41 -21 93q0 31 8 67q53 258 364 258 q143 0 190 -84q28 -52 28 -122q0 -43 -11 -93h-121q7 42 8 74q0 49 -17 78q-28 48 -128 48q-68 0 -121 -41t-67 -108q-4 -20 -4 -38q0 -37 16 -68q25 -46 71 -71l99 -58q53 -32 97 -64.5t66 -92.5q12 -34 12 -76q0 -32 -7 -67z" />
<glyph unicode="t" horiz-adv-x="569" d="M397 936h-166l21 98h166l45 213l135 53l-57 -266h209l-21 -98h-209l-141 -664q-14 -63 -14 -99q0 -24 6 -37q14 -34 86 -34q55 0 96 7l-23 -107q-55 -6 -116 -6q-119 0 -157 50q-25 33 -25 86q0 29 8 65z" />
<glyph unicode="u" d="M872 1034h123l-219 -1034h-106l24 115h-4q-139 -135 -289 -135q-218 0 -218 207q0 52 14 116l155 731h123l-149 -710q-13 -58 -13 -103q0 -143 131 -143q111 0 184.5 76.5t90.5 150.5z" />
<glyph unicode="v" horiz-adv-x="796" d="M373 1034l61 -878h4l439 878h118l-526 -1034h-141l-88 1034h133z" />
<glyph unicode="w" horiz-adv-x="1366" d="M305 0l-65 1034h131l39 -905h4l411 905h152l37 -905h4l424 905h123l-504 -1034h-154l-39 885h-4l-405 -885h-154z" />
<glyph unicode="x" horiz-adv-x="796" d="M23 0l419 551l-153 483h147l107 -389l286 389h136l-371 -477l180 -557h-149l-131 449l-334 -449h-137z" />
<glyph unicode="y" horiz-adv-x="796" d="M143 -391l205 389l-108 1036h133l71 -848h5l423 848h123l-731 -1425h-121z" />
<glyph unicode="z" horiz-adv-x="681" d="M57 0l21 100l608 836h-405l20 98h530l-20 -102l-598 -834h430l-20 -98h-566z" />
<glyph unicode="{" horiz-adv-x="718" d="M481 891l86 397q16 74 49 123t83.5 71.5t99.5 31t119 8.5l-21 -99q-98 0 -143 -42t-64 -126l-69 -329q-25 -121 -72 -185.5t-166 -99.5l-2 -4q102 -18 128 -84t-3 -172l-82 -385q-18 -84 8.5 -126t124.5 -42l-20 -98q-145 0 -213 46t-39 187l90 424q16 76 -10.5 139.5 t-114.5 63.5l20 98q88 0 141.5 63.5t69.5 139.5z" />
<glyph unicode="|" horiz-adv-x="755" d="M477 1665h109v-2220h-109v2220z" />
<glyph unicode="}" horiz-adv-x="718" d="M700 1288l-86 -397q-16 -76 10.5 -139.5t114.5 -63.5l-20 -98q-88 0 -141.5 -63.5t-69.5 -139.5l-90 -424q-16 -74 -49 -123t-83 -71.5t-99.5 -30.5t-118.5 -8l20 98q98 0 143 42t64 126l82 385q23 117 72 177t159 79l2 4q-104 35 -126.5 108.5t8.5 176.5l69 329 q18 84 -8.5 126t-124.5 42l21 99q145 0 212.5 -46.5t38.5 -187.5z" />
<glyph unicode="~" d="M190 379l-53 72q145 176 273 176q63 0 182 -53.5t156 -53.5q94 0 192 137l51 -82q-141 -166 -266 -165q-45 0 -209 65q-6 2 -28.5 12.5t-34 14.5t-31 9t-35.5 5q-39 0 -80 -25.5t-60.5 -46t-56.5 -65.5z" />
<glyph unicode="&#xa1;" horiz-adv-x="681" d="M455 899l32 156h152l-33 -156h-151zM438 707h107l-215 -1098h-144z" />
<glyph unicode="&#xa2;" d="M344 137l373 832q-47 14 -72 14q-72 0 -126 -42t-90 -131t-50 -140.5t-35 -153.5q-6 -25 -8 -37q-2 -6 -4 -18q-60 -265 12 -324zM350 -14l-137 -305h-82l152 325q-94 76 -107.5 172t37.5 342q12 61 21.5 96t30 103.5t43 111.5t59 98.5t79.5 87.5t105.5 54.5t134.5 22.5 q47 0 84 -9l107 242h75l-114 -262q182 -90 114 -342h-123q35 162 -47 221l-374 -844q47 -12 88 -12q100 0 170.5 81t101.5 226h123q-43 -201 -153.5 -309.5t-266.5 -108.5q-43 1 -121 9z" />
<glyph unicode="&#xa3;" d="M815 0h-776l22 111h152l127 596h-166l25 110h166l55 262q43 199 151.5 285t245.5 86q188 0 242.5 -87t7.5 -280h-131q74 256 -135 256q-203 0 -256 -249l-58 -273h308l-25 -110h-307l-127 -596h502z" />
<glyph unicode="&#xa4;" d="M227 219l-100 -80l-74 99l97 77q-61 129 -31 273q33 154 147 278l-63 80l116 96l66 -77q137 90 293 90q154 0 256 -90l98 77l76 -96l-96 -80q61 -121 28 -278q-31 -147 -145 -273l63 -77l-118 -99l-64 80q-147 -92 -295 -92q-145 0 -254 92zM506 238q141 -2 259 109.5 t144 240.5q33 164 -31.5 259t-222.5 97q-158 -2 -263 -98t-142 -258q-31 -129 40 -240.5t216 -109.5z" />
<glyph unicode="&#xa5;" d="M483 432l29 133h-301l22 111h263l-199 751h156l159 -684l465 684h142l-521 -751h265l-23 -111h-305l-29 -133h305l-24 -110h-305l-68 -322h-123l68 322h-301l24 110h301z" />
<glyph unicode="&#xa6;" horiz-adv-x="755" d="M477 1499h109v-776h-109v776zM477 389h109v-776h-109v776z" />
<glyph unicode="&#xa7;" d="M160 10l24 117q139 -57 250 -57q92 0 169 44t95 132q12 57 -30.5 107t-109.5 89l-133 78q-67 39 -109 94.5t-27 120.5q10 43 29.5 77t57.5 60.5l60.5 41t74.5 38t64 29.5q-84 57 -125.5 121.5t-21.5 159.5q27 129 133.5 187t243.5 58q117 0 215 -49l-25 -115 q-135 66 -221 66q-72 0 -135.5 -35t-77.5 -104q-14 -61 25 -110.5t102 -85.5l126 -73q62 -37 99 -95t21 -132q-10 -49 -58.5 -100t-83 -75t-108.5 -67q-10 -6 -16 -10q197 -100 159 -278q-27 -125 -133 -199t-260 -74q-118 0 -274 39zM588 569l58 38q46 30 70.5 48.5 t51.5 49t33 61.5q8 14 2 31.5t-7 28t-15.5 23.5t-21.5 21.5t-26 18.5l-27 15l-27 15q-17 9 -24 13q-6 -2 -43 -22l-59 -31q-23 -12 -54.5 -34t-50 -44.5t-24.5 -44.5q-4 -23 2 -45.5t15.5 -37t33 -32.5t35.5 -26.5t42 -25t36 -20.5z" />
<glyph unicode="&#xa8;" horiz-adv-x="569" d="M305 1169l45 207h131l-45 -207h-131zM629 1169l45 207h131l-45 -207h-131z" />
<glyph unicode="&#xa9;" horiz-adv-x="1638" d="M813 -29q-309 0 -480 225.5t-103.5 543t333.5 542.5t575.5 225t481.5 -225t104.5 -542.5t-335 -543t-576.5 -225.5zM833.5 70q272.5 0 503 194.5t290 475t-88 475t-420 194.5t-502 -194.5t-289 -475t87 -475t419 -194.5zM1053 1118q-113 0 -164 -85t-94 -277 q-20 -94 -26.5 -152.5t0.5 -111t39 -76t91 -23.5q80 0 125 43t66 131h122q-8 -35 -24.5 -71.5t-49 -87t-94 -82t-141.5 -31.5q-92 0 -151.5 33.5t-83 69.5t-24.5 116t3 110.5t23 116.5q2 10 2 15q12 57 18 81.5t23.5 83t36 90t52.5 77t72.5 69t96 42t127.5 18.5 q240 0 186 -250q-2 -4 -2 -6h-123q20 80 -2 118.5t-104 38.5z" />
<glyph unicode="&#xaa;" horiz-adv-x="544" d="M639 1079l25 113h-39q-33 0 -44.5 -1t-42 -3t-44 -6t-38 -10.5t-37.5 -17.5l-30 -25q-16 -13 -25.5 -33.5t-15.5 -44.5q-12 -59 11.5 -94t82.5 -35q68 0 126.5 48t70.5 109zM686 877h-80l17 79h-5q-84 -96 -210 -96q-90 0 -127 49t-19 138q10 45 28.5 78.5t50.5 55 t58.5 36t72.5 20.5l70 9q24 3 73 5t61 2l10 50q16 74 -5.5 108.5t-96.5 34.5q-131 0 -154 -103h-86q45 164 258 164q18 0 32.5 -1t38 -4t37 -9t34 -17.5t25.5 -29.5l12 -43q7 -25 -5 -60l-65 -311q-19 -79 -25 -155z" />
<glyph unicode="&#xab;" horiz-adv-x="796" d="M621 184l-95 398l271 397h106l-246 -397l72 -398h-108zM319 184l-94 398l271 397h106l-246 -397l72 -398h-109z" />
<glyph unicode="&#xac;" d="M201 754h827l-119 -564h-106l96 457h-721z" />
<glyph unicode="&#xad;" horiz-adv-x="569" d="M596 487h-414l25 117h414z" />
<glyph unicode="&#xae;" horiz-adv-x="1638" d="M813 -29q-309 0 -480 225.5t-103.5 543t333.5 542.5t575.5 225t481.5 -225t104.5 -542.5t-335 -543t-576.5 -225.5zM833.5 70q272.5 0 503 194.5t290 475t-88 475t-420 194.5t-502 -194.5t-289 -475t87 -475t419 -194.5zM969 702h-162l-86 -405h-107l193 903h287 q150 0 196.5 -54t22.5 -175q-20 -88 -69.5 -140.5t-145.5 -70.5l-2 -4q53 -10 74.5 -20.5t31.5 -49.5t1 -99.5t-36 -187.5q-8 -47 -8 -102h-104q-2 12 32 221q0 2 6.5 25.5t7.5 39t-2 41t-15.5 40t-42 26.5t-72.5 12zM891 1102l-64 -301h140q100 0 150 34.5t73 137.5 q16 74 -14.5 101.5t-110.5 27.5h-174z" />
<glyph unicode="&#xaf;" horiz-adv-x="569" d="M301 1327h533l-21 -98h-532z" />
<glyph unicode="&#xb0;" horiz-adv-x="819" d="M961 1143q-27 -127 -136.5 -217t-236.5 -90t-198 90t-44 217q25 127 134.5 217t236.5 90t199 -91t45 -216zM879 1143q18 92 -34 158.5t-147 66.5q-92 0 -173 -66.5t-97 -158.5q-20 -94 31 -159.5t145 -65.5q92 0 173.5 65.5t101.5 159.5z" />
<glyph unicode="&#xb1;" d="M522 571h-360l22 107h361l76 356h106l-76 -356h361l-23 -107h-360l-76 -356h-107zM891 106l-23 -106h-827l22 106h828z" />
<glyph unicode="&#xb2;" horiz-adv-x="544" d="M635 662l-19 -82h-473l19 84l145 154l135 145l101 112q53 61 79.5 104.5t32.5 75.5q14 66 -15.5 89.5t-92.5 23.5q-133 0 -166 -141h-96q25 119 103.5 171t174.5 52q98 0 158.5 -40t40.5 -138q-18 -90 -97 -186.5t-393 -423.5h363z" />
<glyph unicode="&#xb3;" horiz-adv-x="544" d="M416 991l16 82q102 -8 150.5 28t68.5 130q12 61 -13.5 99t-86.5 38q-127 0 -154 -141h-102q14 98 85 160.5t177 62.5q121 0 172 -49t27 -160q-41 -186 -191 -209v-4q152 -23 109 -215q-51 -246 -283 -246q-258 0 -201 224h103q-35 -141 102 -142q141 0 174 148 q25 115 -7.5 158.5t-145.5 35.5z" />
<glyph unicode="&#xb4;" horiz-adv-x="569" d="M397 1147l291 280h164l-352 -280h-103z" />
<glyph unicode="&#xb5;" d="M872 1034h123l-219 -1034h-106l24 115h-4q-139 -135 -289 -135q-104 0 -141 36l-88 -407h-123l303 1425h123l-149 -710q-53 -246 118 -246q111 0 184.5 76.5t90.5 150.5z" />
<glyph unicode="&#xb6;" horiz-adv-x="1155" d="M436 -197l197 928q-143 -2 -214 106.5t-40 262.5q80 373 440 379h359l-355 -1676h-106l332 1565h-175l-331 -1565h-107z" />
<glyph unicode="&#xb7;" horiz-adv-x="454" d="M246 440l33 156h151l-33 -156h-151z" />
<glyph unicode="&#xb8;" horiz-adv-x="569" d="M-20 -385l43 61q82 -29 124 -28q51 0 96.5 23.5t55.5 70.5q8 39 -16.5 59.5t-65.5 20.5q-47 0 -84 -21l-33 31l158 168h78l-109 -113l4 -4q31 10 64 11q63 0 102 -40t25 -110q-33 -168 -268 -168q-82 0 -174 39z" />
<glyph unicode="&#xb9;" horiz-adv-x="544" d="M358 1212l19 91q127 72 196 133h86l-182 -856h-92l160 753q-81 -64 -187 -121z" />
<glyph unicode="&#xba;" horiz-adv-x="544" d="M452.5 860q-36.5 0 -66.5 6t-51.5 15.5t-34.5 27t-21.5 31.5t-11.5 40t-4 40t3 44t7 42t9.5 42t8.5 36q0 2 9 45t12 54t16.5 51t25.5 56l35 44q23 29 49.5 41t65.5 22t86 10q37 0 67.5 -7t51 -15t34.5 -27l24 -31q9 -12 11 -39.5t4 -40t-3 -45t-6 -41t-9 -42t-8 -35.5 q-2 -6 -8.5 -36t-8.5 -42t-11 -42t-16 -44l-21 -40q-13 -26 -27 -39l-36 -32q-22 -18 -46.5 -27.5t-58.5 -15.5t-70.5 -6zM467 922q53 0 90 18t59.5 61t32.5 78t25 105q14 68 19 103.5t0 78.5t-33.5 61.5t-81.5 18.5q-43 0 -76 -15.5t-51.5 -35t-35 -59.5t-23.5 -68.5 t-19.5 -84t-16.5 -85t-5 -69.5t10.5 -59.5t37 -33.5t68.5 -14z" />
<glyph unicode="&#xbb;" horiz-adv-x="796" d="M254 184h-109l240 398l-74 397h107l98 -397zM555 184h-109l240 398l-74 397h107l98 -397z" />
<glyph unicode="&#xbc;" horiz-adv-x="1363" d="M1325 856l-119 -561h109l-19 -82h-108l-45 -213h-92l45 213h-332l22 100l400 543h139zM866 295h248l103 487h-5zM225 -59h-114l1220 1538h113zM358 1212l19 91q127 72 196 133h86l-182 -856h-92l160 753q-81 -64 -187 -121z" />
<glyph unicode="&#xbd;" horiz-adv-x="1363" d="M1276 0h-473l18 84l146 155l135 144l100 113q53 61 80 104t33 76q14 66 -15.5 89t-93.5 23q-133 0 -166 -141h-96q25 119 103.5 171t175.5 52q98 0 158.5 -39.5t39.5 -138.5q-18 -90 -97 -186t-392 -424h362zM207 -59h-115l1221 1538h112zM358 1212l19 91q127 72 196 133 h86l-182 -856h-92l160 753q-81 -64 -187 -121z" />
<glyph unicode="&#xbe;" horiz-adv-x="1363" d="M1325 856l-119 -561h109l-19 -82h-108l-45 -213h-92l45 213h-332l22 100l400 543h139zM866 295h248l103 487h-5zM281 -59h-115l1220 1538h113zM416 991l16 82q102 -8 150.5 28t68.5 130q12 61 -13.5 99t-86.5 38q-127 0 -154 -141h-102q14 98 85 160.5t177 62.5 q121 0 172 -49t27 -160q-41 -186 -191 -209v-4q152 -23 109 -215q-51 -246 -283 -246q-258 0 -201 224h103q-35 -141 102 -142q141 0 174 148q25 115 -7.5 158.5t-145.5 35.5z" />
<glyph unicode="&#xbf;" horiz-adv-x="796" d="M518 707h123l-37 -179q-20 -92 -56 -157.5t-76 -106.5l-81 -84q-41 -43 -79 -115.5t-60 -177.5q-12 -59 -15.5 -93t4 -69.5t38 -51t86.5 -15.5q94 0 138 63.5t62 167.5h131q-61 -342 -354 -342q-170 0 -214 79t-5 263q23 106 62.5 189.5t83.5 132.5l85 92q41 43 75 95.5 t48 115.5zM545 899l33 156h151l-33 -156h-151z" />
<glyph unicode="&#xc0;" horiz-adv-x="1138" d="M807 1479h156l147 -1479h-137l-37 389h-580l-198 -389h-131zM420 500h506l-74 835h-4zM1038 1591h-102l-234 281h164z" />
<glyph unicode="&#xc1;" horiz-adv-x="1138" d="M807 1479h156l147 -1479h-137l-37 389h-580l-198 -389h-131zM420 500h506l-74 835h-4zM776 1591l291 281h164l-352 -281h-103z" />
<glyph unicode="&#xc2;" horiz-adv-x="1138" d="M807 1479h156l147 -1479h-137l-37 389h-580l-198 -389h-131zM420 500h506l-74 835h-4zM950 1796l-211 -209h-131l291 285h137l172 -285h-131z" />
<glyph unicode="&#xc3;" horiz-adv-x="1138" d="M807 1479h156l147 -1479h-137l-37 389h-580l-198 -389h-131zM420 500h506l-74 835h-4zM682 1663h-78q29 84 82 141q68 68 141 68q16 0 37 -6t34 -12.5l38 -19.5l33 -17q10 -4 32.5 -17.5t34 -19.5t28.5 -12.5t32 -6.5q39 0 68.5 33t43.5 78h78q-16 -74 -76 -139 q-59 -70 -135 -70q-18 0 -38.5 6t-35 12.5t-38 19.5t-33.5 17q-8 4 -32 18.5t-35 19.5t-29.5 11.5t-34.5 6.5q-37 0 -71 -36t-46 -75z" />
<glyph unicode="&#xc4;" horiz-adv-x="1138" d="M807 1479h156l147 -1479h-137l-37 389h-580l-198 -389h-131zM420 500h506l-74 835h-4zM684 1614l45 207h131l-45 -207h-131zM1008 1614l45 207h131l-45 -207h-131z" />
<glyph unicode="&#xc5;" horiz-adv-x="1138" d="M807 1479h156l147 -1479h-137l-37 389h-580l-198 -389h-131zM420 500h506l-74 835h-4zM985 1952q78 0 121 -56.5t26.5 -134.5t-84 -135t-145.5 -57t-122 57t-27.5 135t85 134.5t146.5 56.5zM969 1880q-49 0 -91 -35t-53 -84q-10 -47 17.5 -84t75.5 -37q45 0 89 37t54 84 t-17.5 83t-74.5 36z" />
<glyph unicode="&#xc6;" horiz-adv-x="1593" d="M162 0h-135l991 1479h792l-22 -111h-586l-63 -553h508l-25 -110h-498l-75 -594h493l-22 -111h-617l49 389h-530zM1071 1380l-573 -880h469l108 880h-4z" />
<glyph unicode="&#xc7;" horiz-adv-x="1024" d="M1157 1079h-131q68 317 -166 318q-57 0 -105 -10.5t-86 -38t-67 -54t-54.5 -80t-43 -93.5t-36.5 -114.5l-31 -123.5l-31 -144l-25 -114l-20 -105q-11 -61 -14 -97t-5 -84t4 -75.5t15.5 -61.5t29 -52.5t46 -36t62.5 -24.5t83 -7q229 0 307 342h139q-10 -45 -24.5 -90 t-51.5 -114.5t-85 -121t-130 -89.5t-180 -38q-14 0 -20 2l-82 -86l4 -4q31 10 63 11q63 0 102.5 -40t24.5 -110q-33 -168 -268 -168q-82 0 -174 39l43 61q82 -29 125 -28q51 0 96 23.5t55 70.5q8 39 -16.5 59.5t-65.5 20.5q-47 0 -84 -21l-32 31l139 145q-72 10 -122 40 t-79.5 67t-42 99.5t-14.5 114.5t10 139t22.5 144.5t32.5 157.5l29 133q10 47 30.5 124t38 121t45 105.5t57.5 97.5t73 76t91 61.5t110.5 35.5t134.5 14q102 0 167.5 -33.5t92 -76.5t32 -110.5t0 -110t-17.5 -97.5z" />
<glyph unicode="&#xc8;" d="M467 1479h670l-23 -111h-539l-116 -553h514l-25 -110h-514l-127 -594h553l-22 -111h-684zM924 1591h-103l-233 281h164z" />
<glyph unicode="&#xc9;" d="M467 1479h670l-23 -111h-539l-116 -553h514l-25 -110h-514l-127 -594h553l-22 -111h-684zM662 1591l290 281h164l-352 -281h-102z" />
<glyph unicode="&#xca;" d="M467 1479h670l-23 -111h-539l-116 -553h514l-25 -110h-514l-127 -594h553l-22 -111h-684zM836 1796l-211 -209h-131l290 285h138l172 -285h-131z" />
<glyph unicode="&#xcb;" d="M467 1479h670l-23 -111h-539l-116 -553h514l-25 -110h-514l-127 -594h553l-22 -111h-684zM569 1614l45 207h131l-45 -207h-131zM893 1614l45 207h131l-45 -207h-131z" />
<glyph unicode="&#xcc;" horiz-adv-x="454" d="M475 1479h131l-313 -1479h-131zM696 1591h-102l-234 281h164z" />
<glyph unicode="&#xcd;" horiz-adv-x="454" d="M475 1479h131l-313 -1479h-131zM434 1591l291 281h164l-352 -281h-103z" />
<glyph unicode="&#xce;" horiz-adv-x="454" d="M475 1479h131l-313 -1479h-131zM608 1796l-211 -209h-131l291 285h137l172 -285h-131z" />
<glyph unicode="&#xcf;" horiz-adv-x="454" d="M475 1479h131l-313 -1479h-131zM342 1614l45 207h131l-45 -207h-131zM666 1614l45 207h131l-45 -207h-131z" />
<glyph unicode="&#xd0;" horiz-adv-x="1138" d="M154 0l161 758h-125l23 110h125l129 611h391q102 0 174 -19.5t114 -63.5t61.5 -99.5t17.5 -146.5t-16.5 -185.5t-43.5 -231.5q-43 -201 -88 -324.5t-119.5 -223t-187.5 -142.5t-278 -43h-338zM575 1368l-106 -500h311l-22 -110h-312l-139 -647h160q104 0 172 9t127 42 t95 76t71 132t60.5 188t60.5 263q76 317 18.5 432t-323.5 115h-173z" />
<glyph unicode="&#xd1;" horiz-adv-x="1251" d="M289 0h-131l313 1479h201l325 -1299l4 4l275 1295h131l-313 -1479h-199l-324 1313l-4 -4zM739 1663h-77q29 84 81 141q68 68 142 68q16 0 36.5 -6t34 -12.5t38 -19.5l32.5 -17q10 -4 32.5 -17.5t34 -19.5t29 -12.5t31.5 -6.5q39 0 68.5 33t44.5 78h77q-16 -74 -75 -139 q-59 -70 -135 -70q-18 0 -39 6t-35.5 12.5t-38 19.5t-33.5 17q-8 4 -31.5 18.5t-35 19.5t-30 11.5t-34.5 6.5q-37 0 -71 -36t-46 -75z" />
<glyph unicode="&#xd2;" horiz-adv-x="1138" d="M412 739l-25 -114l-19 -105q-11 -61 -14.5 -97t-5.5 -84t4 -75.5t15.5 -61.5t29 -52.5t46 -36t62.5 -24.5t83 -7q57 0 105 10t86 38t66.5 54.5t54.5 79.5t43.5 93t36.5 115l31 124l31 143l25 115l19 104q11 61 14.5 97.5t5.5 84.5t-4 75.5t-15.5 61.5t-29 52.5t-46 35.5 t-62.5 24.5t-83 7.5q-57 0 -105 -10.5t-86 -38t-66.5 -54t-54.5 -80t-43 -93.5t-36.5 -114.5l-31.5 -123.5zM281 739l28 133q10 47 30.5 124t38 121t45.5 105.5t57.5 97.5t72.5 76t91 61.5t110.5 35.5t134.5 14t128 -14t96 -35.5t64.5 -61.5t40 -76t17.5 -97.5t1 -105.5 t-13.5 -120.5t-21.5 -124t-27 -133.5q-20 -98 -33 -149l-36.5 -137t-46 -133.5t-56 -112t-74.5 -100t-94.5 -70.5t-121 -50.5t-149.5 -15.5q-72 0 -128 14.5t-96 36t-64.5 61.5t-40 76t-17.5 97t0 106.5t14.5 121t22 123.5t27.5 132zM1038 1591h-102l-234 281h164z" />
<glyph unicode="&#xd3;" horiz-adv-x="1138" d="M412 739l-25 -114l-19 -105q-11 -61 -14.5 -97t-5.5 -84t4 -75.5t15.5 -61.5t29 -52.5t46 -36t62.5 -24.5t83 -7q57 0 105 10t86 38t66.5 54.5t54.5 79.5t43.5 93t36.5 115l31 124l31 143l25 115l19 104q11 61 14.5 97.5t5.5 84.5t-4 75.5t-15.5 61.5t-29 52.5t-46 35.5 t-62.5 24.5t-83 7.5q-57 0 -105 -10.5t-86 -38t-66.5 -54t-54.5 -80t-43 -93.5t-36.5 -114.5l-31.5 -123.5zM281 739l28 133q10 47 30.5 124t38 121t45.5 105.5t57.5 97.5t72.5 76t91 61.5t110.5 35.5t134.5 14t128 -14t96 -35.5t64.5 -61.5t40 -76t17.5 -97.5t1 -105.5 t-13.5 -120.5t-21.5 -124t-27 -133.5q-20 -98 -33 -149l-36.5 -137t-46 -133.5t-56 -112t-74.5 -100t-94.5 -70.5t-121 -50.5t-149.5 -15.5q-72 0 -128 14.5t-96 36t-64.5 61.5t-40 76t-17.5 97t0 106.5t14.5 121t22 123.5t27.5 132zM776 1591l291 281h164l-352 -281h-103z " />
<glyph unicode="&#xd4;" horiz-adv-x="1138" d="M412 739l-25 -114l-19 -105q-11 -61 -14.5 -97t-5.5 -84t4 -75.5t15.5 -61.5t29 -52.5t46 -36t62.5 -24.5t83 -7q57 0 105 10t86 38t66.5 54.5t54.5 79.5t43.5 93t36.5 115l31 124l31 143l25 115l19 104q11 61 14.5 97.5t5.5 84.5t-4 75.5t-15.5 61.5t-29 52.5t-46 35.5 t-62.5 24.5t-83 7.5q-57 0 -105 -10.5t-86 -38t-66.5 -54t-54.5 -80t-43 -93.5t-36.5 -114.5l-31.5 -123.5zM281 739l28 133q10 47 30.5 124t38 121t45.5 105.5t57.5 97.5t72.5 76t91 61.5t110.5 35.5t134.5 14t128 -14t96 -35.5t64.5 -61.5t40 -76t17.5 -97.5t1 -105.5 t-13.5 -120.5t-21.5 -124t-27 -133.5q-20 -98 -33 -149l-36.5 -137t-46 -133.5t-56 -112t-74.5 -100t-94.5 -70.5t-121 -50.5t-149.5 -15.5q-72 0 -128 14.5t-96 36t-64.5 61.5t-40 76t-17.5 97t0 106.5t14.5 121t22 123.5t27.5 132zM950 1796l-211 -209h-131l291 285h137 l172 -285h-131z" />
<glyph unicode="&#xd5;" horiz-adv-x="1138" d="M412 739l-25 -114l-19 -105q-11 -61 -14.5 -97t-5.5 -84t4 -75.5t15.5 -61.5t29 -52.5t46 -36t62.5 -24.5t83 -7q57 0 105 10t86 38t66.5 54.5t54.5 79.5t43.5 93t36.5 115l31 124l31 143l25 115l19 104q11 61 14.5 97.5t5.5 84.5t-4 75.5t-15.5 61.5t-29 52.5t-46 35.5 t-62.5 24.5t-83 7.5q-57 0 -105 -10.5t-86 -38t-66.5 -54t-54.5 -80t-43 -93.5t-36.5 -114.5l-31.5 -123.5zM281 739l28 133q10 47 30.5 124t38 121t45.5 105.5t57.5 97.5t72.5 76t91 61.5t110.5 35.5t134.5 14t128 -14t96 -35.5t64.5 -61.5t40 -76t17.5 -97.5t1 -105.5 t-13.5 -120.5t-21.5 -124t-27 -133.5q-20 -98 -33 -149l-36.5 -137t-46 -133.5t-56 -112t-74.5 -100t-94.5 -70.5t-121 -50.5t-149.5 -15.5q-72 0 -128 14.5t-96 36t-64.5 61.5t-40 76t-17.5 97t0 106.5t14.5 121t22 123.5t27.5 132zM682 1663h-78q29 84 82 141 q68 68 141 68q16 0 37 -6t34 -12.5l38 -19.5l33 -17q10 -4 32.5 -17.5t34 -19.5t28.5 -12.5t32 -6.5q39 0 68.5 33t43.5 78h78q-16 -74 -76 -139q-59 -70 -135 -70q-18 0 -38.5 6t-35 12.5t-38 19.5t-33.5 17q-8 4 -32 18.5t-35 19.5t-29.5 11.5t-34.5 6.5q-37 0 -71 -36 t-46 -75z" />
<glyph unicode="&#xd6;" horiz-adv-x="1138" d="M412 739l-25 -114l-19 -105q-11 -61 -14.5 -97t-5.5 -84t4 -75.5t15.5 -61.5t29 -52.5t46 -36t62.5 -24.5t83 -7q57 0 105 10t86 38t66.5 54.5t54.5 79.5t43.5 93t36.5 115l31 124l31 143l25 115l19 104q11 61 14.5 97.5t5.5 84.5t-4 75.5t-15.5 61.5t-29 52.5t-46 35.5 t-62.5 24.5t-83 7.5q-57 0 -105 -10.5t-86 -38t-66.5 -54t-54.5 -80t-43 -93.5t-36.5 -114.5l-31.5 -123.5zM281 739l28 133q10 47 30.5 124t38 121t45.5 105.5t57.5 97.5t72.5 76t91 61.5t110.5 35.5t134.5 14t128 -14t96 -35.5t64.5 -61.5t40 -76t17.5 -97.5t1 -105.5 t-13.5 -120.5t-21.5 -124t-27 -133.5q-20 -98 -33 -149l-36.5 -137t-46 -133.5t-56 -112t-74.5 -100t-94.5 -70.5t-121 -50.5t-149.5 -15.5q-72 0 -128 14.5t-96 36t-64.5 61.5t-40 76t-17.5 97t0 106.5t14.5 121t22 123.5t27.5 132zM684 1614l45 207h131l-45 -207h-131z M1008 1614l45 207h131l-45 -207h-131z" />
<glyph unicode="&#xd7;" d="M549 442l-410 -338l-59 76l409 338l-266 338l92 76l267 -338l409 338l60 -76l-410 -338l266 -338l-92 -76z" />
<glyph unicode="&#xd8;" horiz-adv-x="1138" d="M346 311l744 957q-41 129 -224 129q-53 0 -98 -11.5t-79 -27t-65.5 -51t-52 -61t-43 -81t-35 -89.5t-30 -105.5t-25.5 -109.5l-26 -122q-70 -330 -66 -428zM1104 1167l-739 -956q39 -129 223 -129q92 0 160.5 36t109.5 80t79 145t54.5 166.5t46.5 211.5q2 12 4 18 q66 313 62 428zM272 92l-120 -155l-68 36l152 195q-12 35 -17.5 73t-3.5 85t3 79.5t12 92.5l16 80q4 20 18.5 86.5t16.5 74.5q57 274 92 373q141 385 495 395h21q205 0 293 -121l129 168l59 -43l-153 -198q12 -39 17 -90.5t5 -90t-10 -107.5t-15.5 -95.5l-21.5 -103 t-18 -87.5q-57 -270 -91 -362q-133 -369 -450 -402q-35 -4 -70 -4q-207 0 -291 121z" />
<glyph unicode="&#xd9;" horiz-adv-x="1138" d="M582 1479l-197 -930q-14 -66 -20.5 -103.5t-12.5 -101t5.5 -102.5t35 -80t73.5 -60.5t122 -19.5q86 0 153.5 32.5t105.5 73.5t69.5 116t43 119t27.5 126l197 930h131l-217 -1026q-104 -481 -535 -482q-434 0 -330 482l218 1026h131zM1038 1591h-102l-234 281h164z" />
<glyph unicode="&#xda;" horiz-adv-x="1138" d="M582 1479l-197 -930q-14 -66 -20.5 -103.5t-12.5 -101t5.5 -102.5t35 -80t73.5 -60.5t122 -19.5q86 0 153.5 32.5t105.5 73.5t69.5 116t43 119t27.5 126l197 930h131l-217 -1026q-104 -481 -535 -482q-434 0 -330 482l218 1026h131zM776 1591l291 281h164l-352 -281h-103 z" />
<glyph unicode="&#xdb;" horiz-adv-x="1138" d="M582 1479l-197 -930q-14 -66 -20.5 -103.5t-12.5 -101t5.5 -102.5t35 -80t73.5 -60.5t122 -19.5q86 0 153.5 32.5t105.5 73.5t69.5 116t43 119t27.5 126l197 930h131l-217 -1026q-104 -481 -535 -482q-434 0 -330 482l218 1026h131zM950 1796l-211 -209h-131l291 285h137 l172 -285h-131z" />
<glyph unicode="&#xdc;" horiz-adv-x="1138" d="M582 1479l-197 -930q-14 -66 -20.5 -103.5t-12.5 -101t5.5 -102.5t35 -80t73.5 -60.5t122 -19.5q86 0 153.5 32.5t105.5 73.5t69.5 116t43 119t27.5 126l197 930h131l-217 -1026q-104 -481 -535 -482q-434 0 -330 482l218 1026h131zM684 1614l45 207h131l-45 -207h-131z M1008 1614l45 207h131l-45 -207h-131z" />
<glyph unicode="&#xdd;" horiz-adv-x="1024" d="M444 0l131 614l-235 865h147l183 -736l510 736h131l-604 -865l-132 -614h-131zM719 1591l291 281h164l-353 -281h-102z" />
<glyph unicode="&#xde;" d="M131 0l313 1479h131l-69 -336h274q33 0 57.5 -2t58.5 -9.5t57.5 -21.5t46 -41t33.5 -63.5t10 -93t-15 -128.5q-47 -225 -149.5 -328.5t-290.5 -103.5h-250l-76 -352h-131zM481 1032l-121 -569h244q111 0 182.5 66.5t106.5 230.5q12 61 14 107t-8 75t-25.5 48.5t-42 27.5 t-50 11t-58.5 3h-242z" />
<glyph unicode="&#xdf;" horiz-adv-x="1024" d="M993 274q-31 -145 -129 -219.5t-246 -74.5q-135 0 -187 71.5t-19 204.5h123q-18 -90 10 -134t119 -44q80 0 133 49t71 129q12 57 -12.5 113.5t-65.5 100.5l-84 88q-42 44 -67 96.5t-14 105.5q14 70 63 139.5t101.5 117.5t100.5 111.5t60 120.5q16 74 -37 117t-129 43 q-225 0 -286 -287l-238 -1122h-123l248 1163q12 57 38 110.5t73 110t131 90t192 33.5q123 0 201 -71.5t51 -194.5q-16 -82 -91 -167l-145 -159q-71 -74 -81 -127q-8 -43 17.5 -89t67.5 -90t83 -92t63 -111.5t8 -131.5z" />
<glyph unicode="&#xe0;" d="M723 340l41 188q-10 0 -68.5 -1t-78 -3t-71.5 -8t-77 -14t-64.5 -26.5t-61 -42t-42 -60.5t-31.5 -82q-20 -92 16 -152.5t126 -60.5q104 0 196 80t115 182zM659 0l27 127h-4q-129 -147 -324 -147q-135 0 -192 82.5t-27 222.5q14 66 42 118t60.5 85.5t80 59t88.5 38 t98 20.5t95 11.5t96.5 5.5t84.5 4l19 86q27 121 -7 182t-151 61q-90 0 -155.5 -45t-83.5 -133h-132q37 141 146.5 209t255.5 68q25 0 44 -1t49 -5.5t50.5 -11.5t48 -20t41 -33.5t28.5 -49.5t12 -67t-9 -87l-111 -520q-27 -117 -43 -260h-127zM829 1147h-102l-233 280h163z " />
<glyph unicode="&#xe1;" d="M723 340l41 188q-10 0 -68.5 -1t-78 -3t-71.5 -8t-77 -14t-64.5 -26.5t-61 -42t-42 -60.5t-31.5 -82q-20 -92 16 -152.5t126 -60.5q104 0 196 80t115 182zM659 0l27 127h-4q-129 -147 -324 -147q-135 0 -192 82.5t-27 222.5q14 66 42 118t60.5 85.5t80 59t88.5 38 t98 20.5t95 11.5t96.5 5.5t84.5 4l19 86q27 121 -7 182t-151 61q-90 0 -155.5 -45t-83.5 -133h-132q37 141 146.5 209t255.5 68q25 0 44 -1t49 -5.5t50.5 -11.5t48 -20t41 -33.5t28.5 -49.5t12 -67t-9 -87l-111 -520q-27 -117 -43 -260h-127zM567 1147l291 280h164 l-352 -280h-103z" />
<glyph unicode="&#xe2;" d="M723 340l41 188q-10 0 -68.5 -1t-78 -3t-71.5 -8t-77 -14t-64.5 -26.5t-61 -42t-42 -60.5t-31.5 -82q-20 -92 16 -152.5t126 -60.5q104 0 196 80t115 182zM659 0l27 127h-4q-129 -147 -324 -147q-135 0 -192 82.5t-27 222.5q14 66 42 118t60.5 85.5t80 59t88.5 38 t98 20.5t95 11.5t96.5 5.5t84.5 4l19 86q27 121 -7 182t-151 61q-90 0 -155.5 -45t-83.5 -133h-132q37 141 146.5 209t255.5 68q25 0 44 -1t49 -5.5t50.5 -11.5t48 -20t41 -33.5t28.5 -49.5t12 -67t-9 -87l-111 -520q-27 -117 -43 -260h-127zM741 1352l-211 -209h-131 l291 284h137l172 -284h-131z" />
<glyph unicode="&#xe3;" d="M723 340l41 188q-10 0 -68.5 -1t-78 -3t-71.5 -8t-77 -14t-64.5 -26.5t-61 -42t-42 -60.5t-31.5 -82q-20 -92 16 -152.5t126 -60.5q104 0 196 80t115 182zM659 0l27 127h-4q-129 -147 -324 -147q-135 0 -192 82.5t-27 222.5q14 66 42 118t60.5 85.5t80 59t88.5 38 t98 20.5t95 11.5t96.5 5.5t84.5 4l19 86q27 121 -7 182t-151 61q-90 0 -155.5 -45t-83.5 -133h-132q37 141 146.5 209t255.5 68q25 0 44 -1t49 -5.5t50.5 -11.5t48 -20t41 -33.5t28.5 -49.5t12 -67t-9 -87l-111 -520q-27 -117 -43 -260h-127zM471 1219h-78q33 88 84 141 q68 68 141 67q16 0 38 -6t33 -12l37 -20q26 -14 32 -17q10 -6 32.5 -18.5t35 -18.5t29.5 -12t32 -6q39 0 68.5 32.5t43.5 77.5h78q-23 -80 -76 -139q-63 -70 -137 -69q-18 0 -38.5 6t-34 12t-37 18.5t-33.5 18.5q-8 4 -31.5 18.5t-35 19.5t-30 11t-34.5 6q-37 0 -71 -34.5 t-48 -75.5z" />
<glyph unicode="&#xe4;" d="M723 340l41 188q-10 0 -68.5 -1t-78 -3t-71.5 -8t-77 -14t-64.5 -26.5t-61 -42t-42 -60.5t-31.5 -82q-20 -92 16 -152.5t126 -60.5q104 0 196 80t115 182zM659 0l27 127h-4q-129 -147 -324 -147q-135 0 -192 82.5t-27 222.5q14 66 42 118t60.5 85.5t80 59t88.5 38 t98 20.5t95 11.5t96.5 5.5t84.5 4l19 86q27 121 -7 182t-151 61q-90 0 -155.5 -45t-83.5 -133h-132q37 141 146.5 209t255.5 68q25 0 44 -1t49 -5.5t50.5 -11.5t48 -20t41 -33.5t28.5 -49.5t12 -67t-9 -87l-111 -520q-27 -117 -43 -260h-127zM475 1169l45 207h131l-45 -207 h-131zM799 1169l45 207h131l-45 -207h-131z" />
<glyph unicode="&#xe5;" d="M723 340l41 188q-10 0 -68.5 -1t-78 -3t-71.5 -8t-77 -14t-64.5 -26.5t-61 -42t-42 -60.5t-31.5 -82q-20 -92 16 -152.5t126 -60.5q104 0 196 80t115 182zM659 0l27 127h-4q-129 -147 -324 -147q-135 0 -192 82.5t-27 222.5q14 66 42 118t60.5 85.5t80 59t88.5 38 t98 20.5t95 11.5t96.5 5.5t84.5 4l19 86q27 121 -7 182t-151 61q-90 0 -155.5 -45t-83.5 -133h-132q37 141 146.5 209t255.5 68q25 0 44 -1t49 -5.5t50.5 -11.5t48 -20t41 -33.5t28.5 -49.5t12 -67t-9 -87l-111 -520q-27 -117 -43 -260h-127zM774 1507q78 0 122 -56 t27.5 -134t-84 -135.5t-145.5 -57.5t-122 57.5t-27.5 135.5t84 134t145.5 56zM760 1436q-49 0 -92 -35t-52 -84q-10 -47 18 -84t75 -37q45 0 89 37t54 84t-17.5 83t-74.5 36z" />
<glyph unicode="&#xe6;" horiz-adv-x="1478" d="M268 279q-23 -100 26.5 -150.5t154.5 -50.5q78 0 138 44t96 115.5t55.5 138t29.5 136.5q-25 -2 -76 -3t-79.5 -2t-76 -7t-75 -14.5t-63.5 -25t-58.5 -40t-42 -60t-29.5 -81.5zM903 610h467q43 156 10.5 251t-170.5 95q-109 0 -190.5 -94t-116.5 -252zM1473 512h-590 l-21 -100q-12 -76 -15 -151t42 -129t135 -54q113 0 184.5 64.5t94.5 172.5h129q-90 -336 -428 -335q-102 0 -173 49t-79 135q-123 -184 -334 -184q-147 0 -230.5 74.5t-52.5 215.5q14 72 45 126.5t65 90t89 60t95 37t110.5 18.5t109.5 7t113 1h26q12 53 17.5 83t9.5 77 t-4 74.5t-25.5 56.5t-53.5 42t-87 13q-90 0 -155.5 -45t-83.5 -133h-132q37 141 146.5 209t255.5 68q94 0 166.5 -40t85.5 -118q55 72 139 115t164 43q59 0 105 -11.5t78 -24.5t52.5 -45t32.5 -53.5t14.5 -69.5t2.5 -73.5t-9.5 -86t-14.5 -86.5z" />
<glyph unicode="&#xe7;" horiz-adv-x="796" d="M866 737h-123q55 219 -137 219q-123 0 -190 -118q-47 -84 -99 -326q-14 -66 -20 -98.5t-14.5 -95t-3 -96.5t17.5 -71.5t43 -55t76 -17.5q111 0 160 57.5t77 169.5h123q-14 -78 -46 -138.5t-67.5 -94t-80.5 -55t-80 -29.5t-70 -8l-90 -93l4 -4q31 10 64 11q63 0 102 -40 t25 -110q-33 -168 -269 -168q-82 0 -174 39l43 61q82 -29 125 -28q51 0 96 23.5t56 70.5q8 39 -16.5 59.5t-65.5 20.5q-47 0 -84 -21l-33 31l141 152q-57 6 -98 27.5t-64.5 48t-35 71.5t-14.5 81t5.5 97.5t15.5 98l21 104.5q55 254 105 342q115 201 352 201q139 0 201.5 -80 t21.5 -238z" />
<glyph unicode="&#xe8;" d="M915 492h-589l-17 -80q-12 -76 -15 -151t42 -129t135 -54q113 0 184.5 64.5t94.5 172.5h129q-90 -336 -428 -335q-358 0 -275 385l53 253q92 436 449 437q59 0 104 -10.5t77 -24.5t53.5 -44t33.5 -54.5t14.5 -69.5t2.5 -77t-9.5 -90t-16.5 -92zM346 590h467 q45 172 14.5 269t-170.5 97q-137 0 -203.5 -89t-107.5 -277zM829 1147h-102l-233 280h163z" />
<glyph unicode="&#xe9;" d="M915 492h-589l-17 -80q-12 -76 -15 -151t42 -129t135 -54q113 0 184.5 64.5t94.5 172.5h129q-90 -336 -428 -335q-358 0 -275 385l53 253q92 436 449 437q59 0 104 -10.5t77 -24.5t53.5 -44t33.5 -54.5t14.5 -69.5t2.5 -77t-9.5 -90t-16.5 -92zM346 590h467 q45 172 14.5 269t-170.5 97q-137 0 -203.5 -89t-107.5 -277zM567 1147l291 280h164l-352 -280h-103z" />
<glyph unicode="&#xea;" d="M915 492h-589l-17 -80q-12 -76 -15 -151t42 -129t135 -54q113 0 184.5 64.5t94.5 172.5h129q-90 -336 -428 -335q-358 0 -275 385l53 253q92 436 449 437q59 0 104 -10.5t77 -24.5t53.5 -44t33.5 -54.5t14.5 -69.5t2.5 -77t-9.5 -90t-16.5 -92zM346 590h467 q45 172 14.5 269t-170.5 97q-137 0 -203.5 -89t-107.5 -277zM741 1352l-211 -209h-131l291 284h137l172 -284h-131z" />
<glyph unicode="&#xeb;" d="M915 492h-589l-17 -80q-12 -76 -15 -151t42 -129t135 -54q113 0 184.5 64.5t94.5 172.5h129q-90 -336 -428 -335q-358 0 -275 385l53 253q92 436 449 437q59 0 104 -10.5t77 -24.5t53.5 -44t33.5 -54.5t14.5 -69.5t2.5 -77t-9.5 -90t-16.5 -92zM346 590h467 q45 172 14.5 269t-170.5 97q-137 0 -203.5 -89t-107.5 -277zM475 1169l45 207h131l-45 -207h-131zM799 1169l45 207h131l-45 -207h-131z" />
<glyph unicode="&#xec;" horiz-adv-x="454" d="M289 0h-123l219 1034h123zM602 1147h-102l-234 280h164z" />
<glyph unicode="&#xed;" horiz-adv-x="454" d="M289 0h-123l219 1034h123zM340 1147l291 280h164l-353 -280h-102z" />
<glyph unicode="&#xee;" horiz-adv-x="454" d="M289 0h-123l219 1034h123zM514 1352l-211 -209h-131l291 284h137l172 -284h-131z" />
<glyph unicode="&#xef;" horiz-adv-x="454" d="M289 0h-123l219 1034h123zM248 1169l45 207h131l-45 -207h-131zM571 1169l45 207h132l-46 -207h-131z" />
<glyph unicode="&#xf0;" d="M498 1266l209 102q-20 14 -29.5 19.5l-23 13.5t-16.5 10t-18.5 9t-19.5 8.5l-27 10.5l-36 15l104 76q98 -33 184 -103l205 103l49 -62l-192 -96q57 -72 83.5 -146.5t23.5 -228t-52 -385.5l-45 -206q-43 -205 -155.5 -315.5t-291 -110.5t-244 110.5t-22.5 315.5l47 223 q43 205 156 315.5t291 110.5q164 0 190 -90l6 4q16 96 -22.5 200.5t-85.5 141.5l-215 -107zM657 956q-141 0 -208.5 -105.5t-116.5 -332.5q-18 -88 -26.5 -150.5t-7.5 -121t19.5 -93t56.5 -55t97 -20.5q141 0 210 106.5t118 333.5q25 111 31 183.5t-4.5 135t-52.5 91 t-116 28.5z" />
<glyph unicode="&#xf1;" d="M385 649l-137 -649h-123l219 1034h123l-27 -127h4q133 147 281 148q285 0 215 -326l-156 -729h-122l153 723q23 100 -9 166.5t-132 66.5q-94 0 -174 -73.5t-115 -233.5zM471 1219h-78q33 88 84 141q68 68 141 67q16 0 38 -6t33 -12l37 -20q26 -14 32 -17 q10 -6 32.5 -18.5t35 -18.5t29.5 -12t32 -6q39 0 68.5 32.5t43.5 77.5h78q-23 -80 -76 -139q-63 -70 -137 -69q-18 0 -38.5 6t-34 12t-37 18.5t-33.5 18.5q-8 4 -31.5 18.5t-35 19.5t-30 11t-34.5 6q-37 0 -71 -34.5t-48 -75.5z" />
<glyph unicode="&#xf2;" d="M450.5 -20q-178.5 0 -244 110.5t-22.5 315.5l47 223q43 205 156 315.5t291 110.5t243.5 -110.5t22.5 -315.5l-47 -223q-43 -205 -155.5 -315.5t-291 -110.5zM657 956q-141 0 -208.5 -105.5t-116.5 -332.5q-18 -88 -26.5 -150.5t-7.5 -121t19.5 -93t56.5 -55t97 -20.5 q141 0 210 106.5t118 333.5q25 111 31 183.5t-4.5 135t-52.5 91t-116 28.5zM829 1147h-102l-233 280h163z" />
<glyph unicode="&#xf3;" d="M450.5 -20q-178.5 0 -244 110.5t-22.5 315.5l47 223q43 205 156 315.5t291 110.5t243.5 -110.5t22.5 -315.5l-47 -223q-43 -205 -155.5 -315.5t-291 -110.5zM657 956q-141 0 -208.5 -105.5t-116.5 -332.5q-18 -88 -26.5 -150.5t-7.5 -121t19.5 -93t56.5 -55t97 -20.5 q141 0 210 106.5t118 333.5q25 111 31 183.5t-4.5 135t-52.5 91t-116 28.5zM567 1147l291 280h164l-352 -280h-103z" />
<glyph unicode="&#xf4;" d="M450.5 -20q-178.5 0 -244 110.5t-22.5 315.5l47 223q43 205 156 315.5t291 110.5t243.5 -110.5t22.5 -315.5l-47 -223q-43 -205 -155.5 -315.5t-291 -110.5zM657 956q-141 0 -208.5 -105.5t-116.5 -332.5q-18 -88 -26.5 -150.5t-7.5 -121t19.5 -93t56.5 -55t97 -20.5 q141 0 210 106.5t118 333.5q25 111 31 183.5t-4.5 135t-52.5 91t-116 28.5zM741 1352l-211 -209h-131l291 284h137l172 -284h-131z" />
<glyph unicode="&#xf5;" d="M450.5 -20q-178.5 0 -244 110.5t-22.5 315.5l47 223q43 205 156 315.5t291 110.5t243.5 -110.5t22.5 -315.5l-47 -223q-43 -205 -155.5 -315.5t-291 -110.5zM657 956q-141 0 -208.5 -105.5t-116.5 -332.5q-18 -88 -26.5 -150.5t-7.5 -121t19.5 -93t56.5 -55t97 -20.5 q141 0 210 106.5t118 333.5q25 111 31 183.5t-4.5 135t-52.5 91t-116 28.5zM471 1219h-78q33 88 84 141q68 68 141 67q16 0 38 -6t33 -12l37 -20q26 -14 32 -17q10 -6 32.5 -18.5t35 -18.5t29.5 -12t32 -6q39 0 68.5 32.5t43.5 77.5h78q-23 -80 -76 -139q-63 -70 -137 -69 q-18 0 -38.5 6t-34 12t-37 18.5t-33.5 18.5q-8 4 -31.5 18.5t-35 19.5t-30 11t-34.5 6q-37 0 -71 -34.5t-48 -75.5z" />
<glyph unicode="&#xf6;" d="M450.5 -20q-178.5 0 -244 110.5t-22.5 315.5l47 223q43 205 156 315.5t291 110.5t243.5 -110.5t22.5 -315.5l-47 -223q-43 -205 -155.5 -315.5t-291 -110.5zM657 956q-141 0 -208.5 -105.5t-116.5 -332.5q-18 -88 -26.5 -150.5t-7.5 -121t19.5 -93t56.5 -55t97 -20.5 q141 0 210 106.5t118 333.5q25 111 31 183.5t-4.5 135t-52.5 91t-116 28.5zM475 1169l45 207h131l-45 -207h-131zM799 1169l45 207h131l-45 -207h-131z" />
<glyph unicode="&#xf7;" d="M162 571h827l-22 -106h-828zM565 879l33 155h152l-33 -155h-152zM379 2l33 156h151l-33 -156h-151z" />
<glyph unicode="&#xf8;" d="M836 786l-525 -626q35 -82 160 -82q158 0 238 137q37 57 90 303q39 188 37 268zM293 244l528 628q-23 84 -164 84q-145 0 -209.5 -96t-115.5 -342q-41 -198 -39 -274zM223 53l-121 -143l-53 41l135 162q-37 78 0 293l54 245q12 55 22 94t42 103.5t75 103.5t122 71t179 32 q162 0 229 -78l119 143l53 -39l-131 -157q25 -96 23 -137.5t-21 -135.5l-53 -245q-45 -211 -150.5 -318.5t-295.5 -107.5q-160 -1 -228 73z" />
<glyph unicode="&#xf9;" d="M872 1034h123l-219 -1034h-106l24 115h-4q-139 -135 -289 -135q-272 0 -204 323l155 731h123l-149 -710q-53 -246 118 -246q111 0 184.5 76.5t90.5 150.5zM829 1147h-102l-233 280h163z" />
<glyph unicode="&#xfa;" d="M872 1034h123l-219 -1034h-106l24 115h-4q-139 -135 -289 -135q-272 0 -204 323l155 731h123l-149 -710q-53 -246 118 -246q111 0 184.5 76.5t90.5 150.5zM567 1147l291 280h164l-352 -280h-103z" />
<glyph unicode="&#xfb;" d="M872 1034h123l-219 -1034h-106l24 115h-4q-139 -135 -289 -135q-272 0 -204 323l155 731h123l-149 -710q-53 -246 118 -246q111 0 184.5 76.5t90.5 150.5zM741 1352l-211 -209h-131l291 284h137l172 -284h-131z" />
<glyph unicode="&#xfc;" d="M872 1034h123l-219 -1034h-106l24 115h-4q-139 -135 -289 -135q-272 0 -204 323l155 731h123l-149 -710q-53 -246 118 -246q111 0 184.5 76.5t90.5 150.5zM475 1169l45 207h131l-45 -207h-131zM799 1169l45 207h131l-45 -207h-131z" />
<glyph unicode="&#xfd;" horiz-adv-x="796" d="M143 -391l205 389l-108 1036h133l71 -848h5l423 848h123l-731 -1425h-121zM512 1147l291 280h164l-353 -280h-102z" />
<glyph unicode="&#xfe;" d="M381 610l-39 -184q-35 -168 10 -258t135 -90q66 0 117 24.5t82 57.5t56.5 98.5t39 115.5t31.5 140q16 76 23.5 119t13.5 102.5t-2 92t-25.5 66.5t-55.5 48t-93 14q-76 0 -166 -87t-127 -259zM45 -391l397 1870h123l-121 -570l7 2q117 143 290 144q76 0 127.5 -22.5 t75 -66.5t34.5 -88t4 -110t-14 -109t-22 -104q-6 -25 -8 -37q-18 -84 -34.5 -144.5t-52.5 -141t-79 -131t-112.5 -86t-155.5 -35.5q-170 0 -223 135l-5 2l-108 -508h-123z" />
<glyph unicode="&#xff;" horiz-adv-x="796" d="M143 -391l205 389l-108 1036h133l71 -848h5l423 848h123l-731 -1425h-121zM420 1169l45 207h131l-45 -207h-131zM743 1169l45 207h132l-46 -207h-131z" />
<glyph unicode="&#x152;" horiz-adv-x="1593" d="M856 109l266 1251q-172 16 -215 16q-84 0 -146.5 -15t-109.5 -55t-79.5 -84t-61.5 -128t-48.5 -159t-45.5 -202l-27 -131q-10 -51 -19.5 -114.5t-9.5 -102.5t5.5 -85t20.5 -71.5t41 -53.5t63.5 -41t90 -22.5t117.5 -9.5q25 0 50.5 1t57.5 3.5t50 2.5zM1255 1368 l-116 -553h510l-25 -110h-510l-127 -594h547l-23 -111h-677q-31 0 -89 -4q-66 -4 -108 -4q-125 0 -210 19.5t-129 72.5t-65.5 102.5t-12.5 154.5t21.5 177t45.5 221q57 272 90 365q113 303 379 366q74 16 162 17q39 0 133 -4t96 -4h663l-22 -111h-533z" />
<glyph unicode="&#x153;" horiz-adv-x="1478" d="M451 -20q-190 0 -251 107.5t-16 318.5l54 245q12 55 22 94t42 103.5t75 103.5t122 71t179 32q113 0 173 -43t83 -138q113 180 313 181q59 0 104.5 -10.5t77 -24.5t53 -44t34 -54.5t14.5 -69.5t2 -77t-9.5 -90t-16.5 -92l-21 -101h-590l-16 -80q-12 -76 -15.5 -151 t41.5 -129t135 -54q113 0 184.5 64.5t94.5 172.5h129q-90 -336 -428 -335q-92 0 -157.5 31.5t-92.5 127.5q-74 -94 -140 -126.5t-179 -32.5zM471 78q158 0 238 137q37 57 90 303q55 229 28.5 333.5t-170.5 104.5q-145 0 -209.5 -96t-115.5 -342q-51 -236 -41 -303 q0 -2 2 -13.5t4 -18.5t8 -21.5t14.5 -24.5t21.5 -22.5t30.5 -19.5t43 -12t56.5 -5zM915 590h467q45 172 14.5 269t-169.5 97q-137 0 -204 -89t-108 -277z" />
<glyph unicode="&#x178;" horiz-adv-x="1024" d="M444 0l131 614l-235 865h147l183 -736l510 736h131l-604 -865l-132 -614h-131zM627 1614l45 207h131l-45 -207h-131zM950 1614l45 207h131l-45 -207h-131z" />
<glyph unicode="&#x2c6;" horiz-adv-x="569" d="M571 1352l-211 -209h-131l291 284h137l172 -284h-131z" />
<glyph unicode="&#x2dc;" horiz-adv-x="569" d="M301 1219h-78q33 88 84 141q68 68 142 67q16 0 37.5 -6t32.5 -12l37 -20q26 -14 32 -17q10 -6 32.5 -18.5t35 -18.5t29.5 -12t32 -6q39 0 68.5 32.5t43.5 77.5h78q-23 -80 -76 -139q-63 -70 -137 -69q-18 0 -38.5 6t-34 12t-37 18.5t-33.5 18.5q-8 4 -31.5 18.5t-35 19.5 t-30 11t-34.5 6q-37 0 -71 -34.5t-48 -75.5z" />
<glyph unicode="&#x2000;" horiz-adv-x="974" />
<glyph unicode="&#x2001;" horiz-adv-x="1951" />
<glyph unicode="&#x2002;" horiz-adv-x="974" />
<glyph unicode="&#x2003;" horiz-adv-x="1951" />
<glyph unicode="&#x2004;" horiz-adv-x="649" />
<glyph unicode="&#x2005;" horiz-adv-x="487" />
<glyph unicode="&#x2006;" horiz-adv-x="323" />
<glyph unicode="&#x2007;" horiz-adv-x="323" />
<glyph unicode="&#x2008;" horiz-adv-x="243" />
<glyph unicode="&#x2009;" horiz-adv-x="389" />
<glyph unicode="&#x200a;" horiz-adv-x="106" />
<glyph unicode="&#x2010;" horiz-adv-x="569" d="M596 487h-414l25 117h414z" />
<glyph unicode="&#x2011;" horiz-adv-x="569" d="M596 487h-414l25 117h414z" />
<glyph unicode="&#x2012;" horiz-adv-x="569" d="M596 487h-414l25 117h414z" />
<glyph unicode="&#x2013;" horiz-adv-x="1024" d="M1137 532h-1024l20 99h1024z" />
<glyph unicode="&#x2014;" horiz-adv-x="2048" d="M113 532l20 99h2048l-20 -99h-2048z" />
<glyph unicode="&#x2018;" horiz-adv-x="454" d="M655 1479l-159 -371h-150l201 371h108z" />
<glyph unicode="&#x2019;" horiz-adv-x="454" d="M346 1108l160 371h149l-200 -371h-109z" />
<glyph unicode="&#x201a;" horiz-adv-x="454" d="M66 -215l159 371h150l-201 -371h-108z" />
<glyph unicode="&#x201c;" horiz-adv-x="796" d="M676 1479l-160 -371h-149l200 371h109zM979 1479l-160 -371h-149l200 371h109z" />
<glyph unicode="&#x201d;" horiz-adv-x="796" d="M367 1108l159 371h150l-201 -371h-108zM670 1108l159 371h150l-201 -371h-108z" />
<glyph unicode="&#x201e;" horiz-adv-x="796" d="M86 -215l160 371h149l-200 -371h-109zM389 -215l160 371h149l-200 -371h-109z" />
<glyph unicode="&#x2022;" horiz-adv-x="1241" d="M1147 737q-33 -150 -167 -259t-283.5 -109t-234.5 109.5t-52 258.5q33 152 164 260.5t280 108.5q152 0 239 -108.5t54 -260.5z" />
<glyph unicode="&#x2026;" horiz-adv-x="2048" d="M266 0l33 156h152l-33 -156h-152zM948 0l33 156h152l-33 -156h-152zM1630 0l33 156h152l-33 -156h-152z" />
<glyph unicode="&#x202f;" horiz-adv-x="389" />
<glyph unicode="&#x2039;" horiz-adv-x="454" d="M299 184l-94 398l270 397h107l-246 -397l72 -398h-109z" />
<glyph unicode="&#x203a;" horiz-adv-x="454" d="M233 184h-108l240 398l-74 397h106l99 -397z" />
<glyph unicode="&#x205f;" horiz-adv-x="487" />
<glyph unicode="&#x20ac;" d="M188 659h103l28 134h-126l49 110h106l29 133q86 412 442 412q184 0 247.5 -93t25.5 -272h-123q29 135 -10 193.5t-156 58.5q-115 0 -187.5 -66.5t-105.5 -217.5l-31 -148h412l-47 -110h-391l-29 -134h362l-47 -110h-336l-38 -184q-61 -281 178 -281q117 0 180 59.5 t90 188.5h117q-76 -362 -416 -363q-369 0 -283 393l39 187h-129z" />
<glyph unicode="&#x2122;" horiz-adv-x="1478" d="M358 592l172 805h-223l17 82h553l-17 -82h-223l-172 -805h-107zM1073 1479l127 -725h4l428 725h140l-189 -887h-106l143 668h-4l-404 -668h-98l-125 668h-4l-143 -668h-107l189 887h149z" />
<glyph unicode="&#xe000;" horiz-adv-x="1035" d="M0 1035h1035v-1035h-1035v1035z" />
<glyph unicode="&#xfb01;" d="M756 0h-123l219 1034h123zM1051 1323h-152l33 156h151zM205 0l198 936h-165l20 98h166l37 174q12 51 26.5 88t48 86.5t97 77t151.5 27.5q10 0 68 -8l-21 -103h-92q-41 0 -70.5 -16.5t-46 -46t-23.5 -50t-13 -53.5l-39 -176h209l-21 -98h-209l-198 -936h-123z" />
<glyph unicode="&#xfb02;" d="M205 0l198 936h-165l20 98h166l37 174q12 51 26.5 88t48 86.5t97 77t151.5 27.5q10 0 68 -8l-21 -103h-92q-41 0 -70.5 -16.5t-46 -46t-23.5 -50t-13 -53.5l-39 -176h209l-21 -98h-209l-198 -936h-123zM754 0h-123l313 1479h123z" />
<glyph unicode="&#xfb03;" horiz-adv-x="1593" d="M1428 0h-123l219 1034h123zM1723 1323h-152l33 156h151zM774 0l198 936h-165l20 98h166l37 174q12 51 26.5 88t48 86.5t97 77t151.5 27.5q10 0 68 -8l-21 -103h-92q-41 0 -70.5 -16.5t-46 -46t-23.5 -50t-13 -53.5l-39 -176h209l-21 -98h-209l-198 -936h-123zM205 0 l198 936h-165l20 98h166l37 174q12 51 26.5 88t48 86.5t97 77t151.5 27.5q10 0 68 -8l-21 -103h-92q-41 0 -70.5 -16.5t-46 -46t-23.5 -50t-13 -53.5l-39 -176h209l-21 -98h-209l-198 -936h-123z" />
<glyph unicode="&#xfb04;" horiz-adv-x="1593" d="M1428 0h-123l313 1479h123zM774 0l198 936h-165l20 98h166l37 174q12 51 26.5 88t48 86.5t97 77t151.5 27.5q10 0 68 -8l-21 -103h-92q-41 0 -70.5 -16.5t-46 -46t-23.5 -50t-13 -53.5l-39 -176h209l-21 -98h-209l-198 -936h-123zM205 0l198 936h-165l20 98h166l37 174 q12 51 26.5 88t48 86.5t97 77t151.5 27.5q10 0 68 -8l-21 -103h-92q-41 0 -70.5 -16.5t-46 -46t-23.5 -50t-13 -53.5l-39 -176h209l-21 -98h-209l-198 -936h-123z" />
</font>
</defs>
</svg>
